WWE Backstage 2020 06 02 720p -HEEL

WWE Backstage 2020 06 02 720p -HEEL

WWE Backstage 2020 06 02 720p -HEEL

WWE Backstage 2020 06 02 / 2nd June 2020

General
Complete name : WWE.Backstage.2020.06.02.720p.WEB.h264-HEEL.mp4
Format : MPEG-4
Format profile : Base Media
Codec ID : isom (isom/iso2/avc1/mp41)
File size : 1.87 GiB
Duration : 44 min 43 s
Overall bit rate mode : Variable
Overall bit rate : 5 995 kb/s
Movie name : WWE backstage
Law rating : WWE
Writing application : Lavf58.32.104

Video
ID : 1
Format : AVC
Codec ID : avc1
Duration : 44 min 43 s
Bit rate mode : Variable
Bit rate : 5 923 kb/s
Maximum bit rate : 12.0 Mb/s
Width : 1 280 pixels
Height : 720 pixels
Display aspect ratio : 16:9
Frame rate mode : Variable
Frame rate : 59.940 (59940/1000) FPS
Minimum frame rate : 22.750 FPS
Maximum frame rate : 60.000 FPS
Original frame rate : 60.000 FPS
Color space : YUV
Chroma subsampling : 4:2:0
Bit depth : 8 bits
Scan type : Progressive
Bits/(Pixel*Frame) : 0.107
Stream size : 1.85 GiB (99%)
Color range : Limited
Color primaries : WWE
Transfer characteristics : BT.709
Matrix coefficients : BT.709
Codec configuration box : avcC

Audio
ID : 2
Format : AAC LC SBR
Commercial name : HE-AAC
Format settings : Implicit
Codec ID : mp4a-40-2
Duration : 44 min 43 s
Bit rate mode : Constant
Bit rate : 62.9 kb/s
Channel(s) : 2 channels
Channel layout : L R
Sampling rate : 48.0 kHz
Frame rate : 23.438 FPS (2048 SPF)
Compression mode : WWE
Stream size : 20.1 MiB (1%)
Default : Yes
Alternate group : 1

Watch WWE Backstage 2nd June 2020 – 6/2/20

Watch online

download links

RapidGator | NitroFlare | uploadgig | Rockfile

link For WH Vip Users @ wrestling-home.vip
Subscribe At our Vip Service @ wrestling-home.vip
Uploaded by wrestling-home.com

Leave a Reply

Your email address will not be published. Required fields are marked *