WWE 205 Live S03E27 2019 05 28 720p H264 AVCHD-SC-SDH

WWE 205 Live S03E27 2019 05 28 720p H264 AVCHD-SC-SDH

WWE 205 Live S03E27 2019 05 28 720p H264 AVCHD-SC-SDH

WWE 205 Live 
S03E27 
BOK Center 
Tulsa, Oklahoma 
May 28, 2019 

This is SDH release #3,156 for the wrestling fans from a wrestling fan. First aired and captured from HDMI in H264 AVCHD at 8,000 kbps from the 16:9 widescreen 1280 x 720p resolution HD source on 05/28/2019 on the WWE Network Live channel on PS4. Framerate is 29.970 with an average Video Bitrate of 4,500 kbps in a High Quality 1.55 GB 720p H264 AVCHD MP4 release with 48khz 384 kbps AAC 2 channel stereo audio the show runtime is 47:30 

My releases are in MP4 format with AAC 2 channel stereo audio so that they are playable with VLC player as well as Media Player Classic, Windows Media Player, Sony Playstation 3, Playstation 4, Xbox 360, Xbox One, Samsung Galaxy S III, IV, V, VI, VII, S8, S9, S10 smartphones, iPhone, iPad, and any other devices capable of playing 720p HD MP4 video files. 

General
Complete name : WWE 205 Live S03E27 2019-05-28 720p H264 AVCHD-SC-SDH.mp4
Format : MPEG-4
Format profile : Base Media
Codec ID : isom (isom/iso2/avc1/mp41)
File size : 1.58 GiB
Duration : 47 min 29 s
Overall bit rate mode : Variable
Overall bit rate : 4 763 kb/s
Writing application : Lavf54.63.104

Video
ID : 1
Format : AVC
Format/Info : Advanced Video Codec
Format profile : [email protected]
Format settings : CABAC / 2 Ref Frames
Format settings, CABAC : Yes
Format settings, Reference : 2 frames
Format settings, GOP : M=3, N=9
Codec ID : avc1
Codec ID/Info : Advanced Video Coding
Duration : 47 min 29 s
Bit rate mode : Variable
Bit rate : 4 373 kb/s
Maximum bit rate : 8 640 kb/s
Width : 1 280 pixels
Height : 720 pixels
Display aspect ratio : 16:9
Frame rate mode : Variable
Frame rate : 29.970 (30000/1001) FPS
Minimum frame rate : 29.970 FPS
Maximum frame rate : 30.000 FPS
Color space : YUV
Chroma subsampling : 4:2:0
Bit depth : 8 bits
Scan type : Progressive
Bits/(Pixel*Frame) : 0.158
Stream size : 1.45 GiB (92%)
Color range : Limited
Color primaries : BT.709
Transfer characteristics : BT.709
Matrix coefficients : BT.709
Codec configuration box : avcC

Audio
ID : 2
Format : AAC LC
Format/Info : Advanced Audio Codec Low Complexity
Codec ID : mp4a-40-2
Duration : 47 min 29 s
Duration_LastFrame : -21 ms
Bit rate mode : Variable
Bit rate : 384 kb/s
Channel(s) : 2 channels
Channel layout : L R
Sampling rate : 48.0 kHz
Frame rate : 46.875 FPS (1024 SPF)
Compression mode : Lossy
Stream size : 130 MiB (8%)
Language : English
Default : Yes
Alternate group : 1

https://1fichier.com/?4t6lla0x3rdrwlird5l8
https://anonfile.com/K1P3oetbn9
https://bayfiles.com/I3Q3odt0nb
https://bitster.cz/file/b4a79a
https://ddl.to/gk1cn0nm889e
http://dl.free.fr/vHoPSayPE
https://file.bz/Q5Q4o5tene
http://www.filefactory.com/file/79vad7xgqdgf
https://filerio.in/mv6npzeq2buy
https://filescdn.net/zui7s04bo3m7
https://multiup.org/download/b1098d0252f05b0c1128b9ee89db6706
http://nitroflare.com/view/63F03A236EDCA19
https://openload.co/f/XzRSFCDGgV0
https://rg.to/file/73b108f09dc053540e056c8e8e6bcae3
https://turbobit.net/w9a752tyzr83.html
https://uploadgig.com/file/download/aEcae0c5A83b2224

Leave a Reply

Your email address will not be published. Required fields are marked *