WWE 205 Live 2020 06 19 1080p -HEEL

WWE 205 Live 2020 06 19 1080p -HEEL

205 Event
WWE 205 Live 2020 06 19 1080p
File inFo

Title: WWE.205.Live.2020.06.19.1080p.WEB.h264-HEEL
Released: 2020.06.19
Source: WWE Network – Livestream
Resolution: 1920 x 1080 @ 30 FPS
Video: H.264 @ 5623 kbps
Audio: AAC @ 125 kbps
Size: 1.06 GB
Runtime: 26mn 24sec


detailed File iNFO

General
Complete name : 1080p.WEB.h264-HEEL.mp4
Format : MPEG-4
Format profile : Base Media
Codec ID : isom (isom/iso2/avc1/mp41)
File size : 1.06 GiB
Duration : 26 min 24 s
Overall bit rate mode : Variable
Overall bit rate : 5 759 kb/s
Writing application : WWE 205 live

Video
Format : AVC
Duration : 26 min 24 s
Bit rate : 5 623 kb/s
Width : 1 920 pixels
Height : 1 080 pixels
Display aspect ratio : 16:9
Frame rate mode : Variable
Frame rate : 30.000 FPS
Minimum frame rate : 29.412 FPS
Maximum frame rate : 30.303 FPS
Color space : YUV – wwe 205 live
Chroma subsampling : 4:2:0
Bit depth : 8 bits
Scan type : Progressive
Bits/(Pixel*Frame) : 0.090
Stream size : 1.04 GiB (98%)
Codec configuration box : avcC

Audio
Format : AAC LC
Codec ID : mp4a-40-2
Duration : 26 min 24 s
Bit rate mode : Variable
Bit rate : 125 kb/s
Maximum bit rate : 135 kb/s
Channel(s) : 2 channels
Channel layout : L R
Sampling rate : 48.0 kHz
Frame rate : 46.875 FPS (1024 SPF)
Compression mode : Lossy
Stream size : 23.7 MiB (2%)
Default : wwe 205 live
Alternate group : wwe 205 live

Single download links

Rapidgator // Nitroflare // Uploadgig // ddl // RockFile

References

WH Homepage

Leave a Reply

Your email address will not be published. Required fields are marked *