WWE 205 Live 2019 05 28 WEB h264-HEEL

WWE 205 Live 2019 05 28 WEB h264-HEEL

WWE 205 Live 2019 05 28 WEB h264-HEEL

General
Complete name : WWE.205.Live.2019.05.28.WEB.h264-HEEL.mp4
Format : MPEG-4
Format profile : Base Media
Codec ID : isom (isom/iso2/avc1/mp41)
File size : 635 MiB
Duration : 49 min 12 s
Overall bit rate mode : Variable
Overall bit rate : 1 804 kb/s
Writing application : Lavf58.26.101

Video
ID : 1
Format : AVC
Format/Info : Advanced Video Codec
Format profile : [email protected]
Format settings : CABAC / 4 Ref Frames
Format settings, CABAC : Yes
Format settings, Reference : 4 frames
Codec ID : avc1
Codec ID/Info : Advanced Video Coding
Duration : 49 min 12 s
Duration_FirstFrame : 7 ms
Bit rate mode : Constant
Bit rate : 1 704 kb/s
Width : 896 pixels
Height : 504 pixels
Display aspect ratio : 16:9
Frame rate mode : Constant
Frame rate : 29.970 (30000/1001) FPS
Color space : YUV
Chroma subsampling : 4:2:0
Bit depth : 8 bits
Scan type : Progressive
Bits/(Pixel*Frame) : 0.126
Stream size : 600 MiB (94%)
Codec configuration box : avcC

Audio
ID : 2
Format : AAC LC
Format/Info : Advanced Audio Codec Low Complexity
Codec ID : mp4a-40-2
Duration : 49 min 12 s
Bit rate mode : Variable
Bit rate : 93.5 kb/s
Maximum bit rate : 108 kb/s
Channel(s) : 2 channels
Channel layout : L R
Sampling rate : 48.0 kHz
Frame rate : 46.875 FPS (1024 SPF)
Compression mode : Lossy
Stream size : 32.9 MiB (5%)
Language : English
Default : Yes
Alternate group : 1

Text
ID : 1-CC1
Format : EIA-608
Muxing mode : SCTE 128 / DTVCC Transport
Muxing mode, more info : Muxed in Video #1
Duration : 49 min 12 s
Bit rate mode : Constant
Stream size : 0.00 Byte (0%)
Encoded stream size : 0.00 Byte (0%)
CaptionServiceName : CC1

https://1fichier.com/?2qtedgm1bkpki4g7ftgz
https://anonfile.com/ebr5n2tfne
https://bayfiles.com/s7s6n3t8nb
https://bitster.cz/file/256d18
https://ddl.to/6wjazbzdwsib
http://dl.free.fr/v6a7Ic1qx
https://file.bz/g1sdn9t5n6
http://www.filefactory.com/file/495u5rqu7xnh
https://filerio.in/o6u8gqu572vd
https://filescdn.net/qj47v2q8gbki
https://multiup.org/download/6b78e5eb28044ce72b73b95ad456f361
http://www.netshare.cz/5bc5a9fececb43f8
http://nitroflare.com/view/140D2BDD086A3CE
https://openload.co/f/Oi7ypfEfdUY
https://rg.to/file/898972ee154d0dc155f488d4ae4790a1
https://turbobit.net/oleddy6roxlg.html
https://uploadgig.com/file/download/3c0ffb02690cdfe8

Leave a Reply

Your email address will not be published. Required fields are marked *