WWE 205 Live 2019 05 28 720p WEB h264-HEEL

WWE 205 Live 2019 05 28 720p WEB h264-HEEL

WWE 205 Live 2019 05 28 720p WEB h264-HEEL

General
Complete name : WWE.205.Live.2019.05.28.720p.WEB.h264-HEEL.mp4
Format : MPEG-4
Format profile : Base Media
Codec ID : isom (isom/iso2/avc1/mp41)
File size : 1.55 GiB
Duration : 49 min 12 s
Overall bit rate mode : Constant
Overall bit rate : 4 501 kb/s
Writing application : Lavf58.26.101

Video
ID : 1
Format : AVC
Format/Info : Advanced Video Codec
Format profile : [email protected]
Format settings : CABAC / 4 Ref Frames
Format settings, CABAC : Yes
Format settings, Reference : 4 frames
Codec ID : avc1
Codec ID/Info : Advanced Video Coding
Duration : 49 min 12 s
Duration_FirstFrame : 7 ms
Bit rate mode : Constant
Bit rate : 4 372 kb/s
Width : 1 280 pixels
Height : 720 pixels
Display aspect ratio : 16:9
Frame rate mode : Constant
Frame rate : 29.970 (30000/1001) FPS
Color space : YUV
Chroma subsampling : 4:2:0
Bit depth : 8 bits
Scan type : Progressive
Bits/(Pixel*Frame) : 0.158
Stream size : 1.50 GiB (97%)
Codec configuration box : avcC

Audio
ID : 2
Format : AAC LC
Format/Info : Advanced Audio Codec Low Complexity
Codec ID : mp4a-40-2
Duration : 49 min 12 s
Bit rate mode : Constant
Bit rate : 125 kb/s
Channel(s) : 2 channels
Channel layout : L R
Sampling rate : 48.0 kHz
Frame rate : 46.875 FPS (1024 SPF)
Compression mode : Lossy
Stream size : 44.2 MiB (3%)
Language : English
Default : Yes
Alternate group : 1

Text
ID : 1-CC1
Format : EIA-608
Muxing mode : SCTE 128 / DTVCC Transport
Muxing mode, more info : Muxed in Video #1
Duration : 49 min 12 s
Bit rate mode : Constant
Stream size : 0.00 Byte (0%)
Encoded stream size : 0.00 Byte (0%)
CaptionServiceName : CC1

https://1fichier.com/?4v1vluy62zexaruoqgd5
https://anonfile.com/w5r4n2t2nf
https://bayfiles.com/18senat8nd
https://bitster.cz/file/97df75
https://ddl.to/7uv0o3x7pfk7
http://dl.free.fr/v8ruufgog
https://file.bz/e6s3nat4n9
http://www.filefactory.com/file/4favzidhotqj
https://filerio.in/326bcun5trht
https://filescdn.net/cd8ov68i2sm7
https://multiup.org/download/e86ddd65cbb7b4b48585e26d076abc7b
http://www.netshare.cz/7fef5ef6e60116a4
http://nitroflare.com/view/C72CB48F23E5486
https://openload.co/f/R-BghA2HaZ8
https://rg.to/file/1bc83d5048c12f37affadc6677554dde
https://turbobit.net/1itf4ezvi399.html
https://uploadgig.com/file/download/cB0df1a1d02b17fE

Leave a Reply

Your email address will not be published. Required fields are marked *