WWE.205.Live.2019.03.19.WEB.HEVC.x265-WH

WWE.205.Live.2019.03.19.WEB.HEVC.x265-WH

WWE.205.Live.2019.03.19.WEB.HEVC.x265-WH

General
Complete name            : WWE.205.Live.2019.03.19.WEB.HEVC.x265-WH.mp4
Format                          : MPEG-4
Format profile                  : QuickTime
Codec ID                        : qt 
File size                        : 419 MiB
Duration                        : 51mn 45s
Overall bit rate                : 1 132 Kbps
Writing application              : Lavf55.33.100

Video
ID                              : 1
Format                          : hev1
Codec ID                        : hev1
Duration                        : 51mn 45s
Bit rate mode                    : Variable
Bit rate                        : 998 Kbps
Width                            : 712 pixels
Height                          : 400 pixels
Display aspect ratio            : 16:9
Frame rate mode                  : Constant
Frame rate                      : 25.000 fps
Bits/(Pixel*Frame)              : 0.140
Stream size                      : 370 MiB (88%)
Language                        : English

Audio
ID                              : 2
Format                          : AAC
Format/Info                      : Advanced Audio Codec
Format profile                  : LC
Codec ID                        : 40
Duration                        : 51mn 45s
Bit rate mode                    : Constant
Bit rate                        : 128 Kbps
Channel(s)                      : 2 channels
Channel positions                : Front: L R
Sampling rate                    : 44.1 KHz
Compression mode                : Lossy
Stream size                      : 47.4 MiB (11%)
Language                        : English

https://1fichier.com/?z9iamloe92uhzsgff5k6
https://anonfile.com/BbzdTeS0m2
https://ddl.to/ad2k91sy5gy9
http://dl.free.fr/nrlK5OKxU
https://filerio.in/0tvipry08bv8
http://filestore.to/?d=C74N18CL48


About PH.M.H

[Wrestling Best Uploader]

View all posts by PH.M.H

Leave a Reply

Your email address will not be published. Required fields are marked *