WRSTLE-1 TV 138 2019 11 29 1080p

WRSTLE-1 TV 138 2019 11 29 1080p

General
Complete name : WRSTLE-1TV 138 29.11.19 (1080p_30fps_H264-128kbit_AAC).mp4
Format : MPEG-4
Format profile : Base Media
Codec ID : isom
File size : 1.07 GiB
Duration : 47mn 37s
Overall bit rate : 3 210 Kbps
Movie name : 週刊WRSTLE-1TV #138 2019.11.29
Performer : Wrestle-1 official
Encoded date : 2019
Writing application : Lavf58.18.104

Video
ID : 1
Format : AVC
Format/Info : Advanced Video Codec
Format profile : [email protected]
Format settings, CABAC : Yes
Format settings, ReFrames : 3 frames
Codec ID : avc1
Codec ID/Info : Advanced Video Coding
Duration : 47mn 36s
Bit rate mode : Variable
Bit rate : 3 074 Kbps
Width : 1 920 pixels
Height : 1 080 pixels
Display aspect ratio : 16:9
Frame rate mode : Constant
Frame rate : 29.970 fps
Color space : YUV
Chroma subsampling : 4:2:0
Bit depth : 8 bits
Scan type : Progressive
Bits/(Pixel*Frame) : 0.049
Stream size : 1.02 GiB (96%)
Title : ISO Media file produced by Google Inc.
Writing library : x264 core 155 r2901 7d0ff22
Transfer characteristics : BT.709-5, BT.1361

Audio
ID : 2
Format : AAC
Format/Info : Advanced Audio Codec
Format profile : LC
Codec ID : 40
Duration : 47mn 37s
Bit rate mode : Constant
Bit rate : 128 Kbps
Channel(s) : 2 channels
Channel positions : Front: L R
Sampling rate : 44.1 KHz
Compression mode : Lossy
Stream size : 43.6 MiB (4%)
Title : ISO Media file produced by Google Inc.
Language : English

https://dropapk.to/qvyx610lb73b
https://fileup.cc/3n0ixeuwjhoy
http://katfile.com/xj5asrq3qdjy
http://nitroflare.com/view/48DB565EE6E339C
https://rapidgator.net/file/38b97b20c16274e8cfbcce6401a9da3f

Leave a Reply

Your email address will not be published. Required fields are marked *