Skyscraper 2018 2160p UHD Dolby Vision DTS Remux [60 GB]

Skyscraper 2018 2160p UHD Dolby Vision DTS Remux [60 GB]

Skyscraper 2018 2160p UHD Dolby Vision DTS Remux [60 GB]

General
Complete name : Skyscraper 2018 2160p UHD Dolby Vision DTS Remux.mp4
Format : MPEG-4
Format profile : Base Media
Codec ID : isom (isom)
File size : 60.8 GiB
Duration : 1 h 42 min
Overall bit rate mode : Variable
Overall bit rate : 85.0 Mb/s
Encoded date : UTC 2019-10-06 03:16:52
Tagged date : UTC 2019-10-06 03:16:52

Video #1
ID : 1
Format : HEVC
Format/Info : High Efficiency Video Coding
Format profile : Main [email protected]@High
HDR format : SMPTE ST 2086, HDR10 compatible
Codec ID : hev1
Codec ID/Info : High Efficiency Video Coding
Duration : 1 h 42 min
Bit rate : 69.1 Mb/s
Width : 3 840 pixels
Height : 2 160 pixels
Display aspect ratio : 16:9
Frame rate mode : Constant
Frame rate : 23.976 (24000/1001) FPS
Color space : YUV
Chroma subsampling : 4:2:0 (Type 2)
Bit depth : 10 bits
Bits/(Pixel*Frame) : 0.348
Stream size : 49.5 GiB (81%)
Default : No
Encoded date : UTC 2019-10-05 23:17:10
Tagged date : UTC 2019-10-06 03:57:57
Color range : Limited
Color primaries : BT.2020
Transfer characteristics : PQ
Matrix coefficients : BT.2020 non-constant
Mastering display color pri : Display P3
Maximum Content Light Level : 1000 cd/m2
Maximum Frame-Average Light : 986 cd/m2
Codec configuration box : hvcC

Video #2
ID : 2
Format : HEVC
Format/Info : High Efficiency Video Coding
Format profile : Main [email protected]@High
HDR format : Dolby Vision, Version 1.0, dvhe.07.06, EL+RPU / SMPTE ST 2086, HDR10 compatible
Codec ID : dvhe
Codec ID/Info : High Efficiency Video Coding with Dolby Vision
Duration : 1 h 42 min
Bit rate : 12.2 Mb/s
Width : 1 920 pixels
Height : 1 080 pixels
Display aspect ratio : 16:9
Frame rate mode : Constant
Frame rate : 23.976 (24000/1001) FPS
Color space : YUV
Chroma subsampling : 4:2:0 (Type 2)
Bit depth : 10 bits
Bits/(Pixel*Frame) : 0.245
Stream size : 8.70 GiB (14%)
Default : No
Encoded date : UTC 2019-10-05 23:17:10
Tagged date : UTC 2019-10-06 03:57:57
Color range : Limited
Color primaries : BT.2020
Transfer characteristics : PQ
Matrix coefficients : BT.2020 non-constant
Mastering display color pri : Display P3
Codec configuration box : hvcC+dvcC

Audio #1
ID : 3
Format : DTS XLL
Format/Info : Digital Theater Systems
Commercial name : DTS-HD Master Audio
Codec ID : mp4a-A9
Duration : 1 h 42 min
Bit rate mode : Variable
Bit rate : 3 509 kb/s
Maximum bit rate : 6 101 kb/s
Channel(s) : 8 channels
Channel layout : C L R LFE Lb Rb Lss Rss
Sampling rate : 48.0 kHz
Frame rate : 93.750 FPS (512 SPF)
Bit depth : 24 bits
Compression mode : Lossless
Stream size : 2.51 GiB (4%)
Title : Complete Main
Language : English
Default : Yes
Alternate group : 1
Tagged date : UTC 2019-10-06 03:57:57

Audio #2
ID : 4
Format : AC-3
Format/Info : Audio Coding 3
Commercial name : Dolby Digital
Codec ID : ac-3
Duration : 1 h 42 min
Bit rate mode : Constant
Bit rate : 192 kb/s
Maximum bit rate : 203 kb/s
Channel(s) : 2 channels
Channel layout : L R
Sampling rate : 48.0 kHz
Frame rate : 31.250 FPS (1536 SPF)
Compression mode : Lossy
Stream size : 141 MiB (0%)
Language : English
Service kind : Complete Main
Encoded date : UTC 2019-10-06 03:57:53
Tagged date : UTC 2019-10-06 03:57:57

Skyscraper 2018 2160p UHD Dolby Vision DTS Remux [60 GB]
Skyscraper 2018 2160p UHD Dolby Vision DTS Remux [60 GB]
Skyscraper 2018 2160p UHD Dolby Vision DTS Remux [60 GB]
Skyscraper 2018 2160p UHD Dolby Vision DTS Remux [60 GB]
Skyscraper 2018 2160p UHD Dolby Vision DTS Remux [60 GB]

Download Single Links :

RapidGator || NitroFlare

 63 total views,  1 views today

Skyscraper 2018 2160p UHD Dolby Vision DTS Remux [60 GB]

Buy Premium or Extend From here to Support WH

About PH.M.H

[Wrestling Best Uploader]

View all posts by PH.M.H

Leave a Reply

Your email address will not be published. Required fields are marked *