WP.Boxing.03.23.2019.WEB.HEVC.x265-WH

WP.Boxing.03.23.2019.WEB.HEVC.x265-WH

General
Complete name : WP.Boxing.03.23.2019.WEB.HEVC.x265-WH.mp4
Format : MPEG-4
Format profile : QuickTime
Codec ID : qt
File size : 1.49 GiB
Duration : 2h 45mn
Overall bit rate : 1 286 Kbps
Writing application : Lavf55.33.100

Video
ID : 1
Format : hev1
Codec ID : hev1
Duration : 2h 45mn
Bit rate mode : Variable
Bit rate : 1 153 Kbps
Width : 712 pixels
Height : 400 pixels
Display aspect ratio : 16:9
Frame rate mode : Constant
Frame rate : 25.000 fps
Bits/(Pixel*Frame) : 0.162
Stream size : 1.33 GiB (90%)
Language : English

Audio
ID : 2
Format : AAC
Format/Info : Advanced Audio Codec
Format profile : LC
Codec ID : 40
Duration : 2h 45mn
Bit rate mode : Constant
Bit rate : 128 Kbps
Channel(s) : 2 channels
Channel positions : Front: L R
Sampling rate : 44.1 KHz
Compression mode : Lossy
Stream size : 151 MiB (10%)
Language : English

ONE LINK DOWNLOAD

anonfile.com

https://shrt10.com/EAsm9

ddl.to

https://shrt10.com/pkuG5cdX

dl.free.fr

https://shrt10.com/g5Kis

filefactory.com

https://shrt10.com/5jAHtwz

filescdn.net

https://shrt10.com/Noxg5s

rapidgator.net

https://shrt10.com/WYMoq1B5

uploadgig.com

https://shrt10.com/LSalk3C

uptobox.com

https://shrt10.com/LZDqawgN

WATCH ONLINE WP Boxing 03 23 2019 WEB HEVC x265-WH

About PH.M.H

[Wrestling Best Uploader]

View all posts by PH.M.H

Leave a Reply

Your email address will not be published. Required fields are marked *