TJPW 2020 05 31 Zenryoku Yell iPPV 2020

TJPW 2020 05 31 Zenryoku Yell iPPV -OPENREC

Download TJPW Zenryoku Yell iPPV 2020
TJPW 2020 05 31 Zenryoku Yell iPPV 2020
Matches Card
DescriptionTJPW Zenryoku Yell iPPV
(05/31/20)
Tokyo, Japan
Shinjuku FACE
0 Fans




Miyu Yamashita vs. Mirai Maiumi

BAKURETSU Sisters (Nodoka Tenma & Yuki Aino)
vs. Yuki Kamifuku and Haruna Neko

Hyper Misao vs. Mahiro Kiryu

Hikari Noa vs. Sena Shiori

Maki Itoh vs. Mina Shirakawa vs. Pom Harajuku

Daydream (Rika Tatsumi & Miu Watanabe)
vs. Yuna Manase & Raku

Magical Sugar Rabbits (Yuka Sakazaki & Mizuki)
vs. Shoko Nakajima & Suzume
Screen Shots
TJPW 2020 05 31 Zenryoku Yell iPPV 2020
File iNformation

General
Complete name :2020.05.31.TJPW.Zenryoku.Yell.iPPV.mp4
Format : MPEG-4
File size : 3.09 GiB
Duration : 2 h 49 min
Overall bit rate : 2 605 kb/s
Writing application : TJPW

Video
ID : TJPW 2020 05 31
Format : AVC
Codec ID : avc1
Duration : 2 h 49 min
Bit rate : 2 400 kb/s
Width : 1 280 pixels
Height : 720 pixels
Display aspect ratio : 16:9
Frame rate mode : Constant
Frame rate : 60.000 FPS
Color space : YUV
Chroma subsampling : 4:2:0
Bit depth : 8 bits
Scan type : Progressive
Bits/(Pixel*Frame) : TJPW
Stream size : 2.85 GiB (92%)

Audio
ID : TJPW 2020 05 31
Format : AAC LC
Codec ID : mp4a-40-2
Duration : 2 h 49 min
Bit rate mode : Constant
Bit rate : 192 kb/s
Channel(s) : 2 channels
Channel layout : L R
Sampling rate : 44.1 kHz
Frame rate : 43.066 FPS (1024 SPF)
Compression mode : Lossy
Stream size : 233 MiB (7%)
Title : simple_aac_recording
Default : TJPW
Alternate group : 1 2020 05 31

Watch online
dOwnload Links

Rapidgator // NitroFlare // Uploadgig // RockFile // ddl.to // Fileup

references

Home Page // Premium Site

 326 total views,  1 views today

TJPW 2020 05 31 Zenryoku Yell iPPV 2020

WH : Source OF Wrestling Releases / Home OF WH Releases

Buy Premium or Renew From WH Links to Keep it Alive

About PH.M.H

[Wrestling Best Uploader]

View all posts by PH.M.H →

2 Comments on “TJPW 2020 05 31 Zenryoku Yell iPPV 2020”

Leave a Reply

Your email address will not be published. Required fields are marked *