TJPW 2020 05 31 PPV Show Full Power Ale

TJPW 2020 05 31 PPV Show Full Power Ale JAPANESE 720p WEB h264-LATE

TJPW 2020 05 31 PPV Show Full Power Ale

TJPW 2020 05 31 PPV Show Full Power Ale
File info

General
Format : Matroska
Format version : Version 4
File size : 3.15 GiB
Duration : 3 h 44 min
Overall bit rate : 2 009 kb/s

detailed file information

General
Complete name : TJPW.2020.05.31.PPV.Show.Full.Power.Ale.JAPANESE.720p.WEB.h264-LATE.mkv
Format : Matroska
Format version : Version 4
File size : 3.15 GiB
Duration : 3 h 44 min
Overall bit rate : 2 009 kb/s

Video
ID : tjpw Power Ale
Format : AVC
Codec ID : V_MPEG4/ISO/AVC
Duration : 3 h 44 min
Bit rate : 1 904 kb/s
Width : 1 280 pixels
Height : 720 pixels
Display aspect ratio : 16:9
Frame rate mode : Constant
Frame rate : 30.000 FPS
Color space : YUV
Chroma subsampling : 4:2:0
Bit depth : 8 bits
Scan type : Progressive
Bits/(Pixel*Frame) : 0.069
Stream size : 2.99 GiB (95%)
Default : tjpw Power Ale
Forced : tjpw Power Ale

Audio
ID : tjpw Power Ale
Format : AAC LC
Codec ID : A_AAC-2
Duration : 3 h 44 min
Bit rate : 105 kb/s
Channel(s) : 2 channels
Channel layout : L R
Sampling rate : 44.1 kHz
Frame rate : 43.066 FPS (1024 SPF)
Compression mode : Lossy
Delay relative to video : -23 ms
Stream size : 168 MiB (5%)
Default : tjpw Power Ale
Forced : Power Ale

TJPW 2020 05 31 PPV Show Full Power Ale
TJPW 2020 05 31 PPV Show Full Power Ale
Single download links

Rapidgator // Nitroflare // Uploadgig

references

WH home page

 315 total views,  1 views today

TJPW 2020 05 31 PPV Show Full Power Ale

WH : Source OF Wrestling Releases / Home OF WH Releases

Buy Premium or Renew From WH Links to Keep it Alive

About PH.M.H

[Wrestling Best Uploader]

View all posts by PH.M.H →

7 Comments on “TJPW 2020 05 31 PPV Show Full Power Ale”

  1. Can we please get this show split up over rockfile and ddownload like the “TJPW Zenryoku Yell iPPV” was split up? All the single file links above are premium file downloads only. Thank you!

  2. I don’t see the split links yet and it has been 6 days since your replied. I know UFC 251 and such has kept you guys busy, but please when you have a moment, please the split links. Thank you!

Leave a Reply

Your email address will not be published. Required fields are marked *