TJP Tokyo Princess Cup 2019 2nd Round Day 1

Tokyo Joshi Pro 2019 06 08 Tokyo Princess Cup 2019 2nd Round Day 1 JAPANESE WEB h264-LATE
TJP Tokyo Princess Cup 2019 2nd Round Day 1
Tokyo Joshi Pro 2019 06 08 Tokyo Princess Cup 2019 2nd Round Day 1 JAPANESE WEB h264-LATE
=== Better LATE than never! ===

TITLE:  Tokyo.Joshi.Pro.2019.06.08.Tokyo.Princess.Cup.2019.2nd.Round.Day.1.JAPANESE.WEB.h264-LATE
DATE:    2019.06.08
RUNTIME: 2h 11m 2s
SIZE:    1.65 GB
VIDEO:  h264 | 1709 kbps | 960×540 px | 30.00 fps
AUDIO:  AAC | 96 kbps

===============================

General
Complete name : Tokyo.Joshi.Pro.2019.06.08.Tokyo.Princess.Cup.2019.2nd.Round.Day.1.JAPANESE.WEB.h264-LATE.mkv
Format : Matroska
Format version : Version 4
File size : 1.65 GiB
Duration : 2 h 11 min
Overall bit rate : 1 808 kb/s
Encoded date : UTC 2019-06-08 07:11:53
Writing application : mkvmerge v34.0.0 (‘Sight and Seen’) 64-bit
Writing library : libebml v1.3.7 + libmatroska v1.5.0

Video
ID : 1
Format : AVC
Format/Info : Advanced Video Codec
Format profile : [email protected]
Format settings : CABAC / 4 Ref Frames
Format settings, CABAC : Yes
Format settings, Reference : 4 frames
Codec ID : V_MPEG4/ISO/AVC
Duration : 2 h 11 min
Bit rate : 1 710 kb/s
Width : 960 pixels
Height : 540 pixels
Display aspect ratio : 16:9
Frame rate mode : Constant
Frame rate : 30.000 FPS
Color space : YUV
Chroma subsampling : 4:2:0
Bit depth : 8 bits
Scan type : Progressive
Bits/(Pixel*Frame) : 0.110
Stream size : 1.56 GiB (95%)
Default : Yes
Forced : No
Color range : Limited
Color primaries : BT.601 PAL
Transfer characteristics : BT.601
Matrix coefficients : BT.470 System B/G

Audio
ID : 2
Format : AAC LC
Format/Info : Advanced Audio Codec Low Complexity
Codec ID : A_AAC-2
Duration : 2 h 11 min
Bit rate : 96.0 kb/s
Channel(s) : 2 channels
Channel layout : L R
Sampling rate : 44.1 kHz
Frame rate : 43.066 FPS (1024 SPF)
Compression mode : Lossy
Delay relative to video : -166 ms
Stream size : 90.0 MiB (5%)
Language : English
Default : Yes
Forced : No

TJP Tokyo Princess Cup 2019 2nd Round Day 1

1fichier.com/?c766vmf73kax3ou5kysx
anonfile.com/Z54215u9nc
bayfiles.com/Ee5d18ufn1
bitster.cz/file/e782a6
ddl.to/qm4bflk18hpj
dl.free.fr/fwhPqoydo
file.bz/G7591cu6n0
www.filefactory.com/file/6vo4fo1mds1r
filerio.in/c2pqkk2dgfwf
filescdn.net/3b1w8l3ds213
multiup.org/download/684bd494a21d267331de40f65269f332
nitroflare.com/view/BE996FA8ADB198A
openload.co/f/dAVk-j1m1J0
rg.to/file/39f9d390b832a6db3e850a8be0cde514
turbobit.net/ddgp3e7gfqdj.html

 57 total views,  1 views today

TJP Tokyo Princess Cup 2019 2nd Round Day 1

WH : Source OF Wrestling Releases / Home OF WH Releases

Buy Premium or Renew From WH Links to Keep it Alive

About PH.M.H

[Wrestling Best Uploader]

View all posts by PH.M.H →

One Comment on “TJP Tokyo Princess Cup 2019 2nd Round Day 1”

Leave a Reply

Your email address will not be published. Required fields are marked *