Stardom New Years Stars 2020 Osaka 1080p -WH

Spread the love

Stardom New Years Stars 2020 Osaka 1080p WEBRip x264-WH – [day / Night]

Stardom New Years Stars 2020 Osaka 1080p -WH

NOTE : WH release of this event came from momoMark the original releaser : i just re join the single fights to one link mp4 file with out encoding or any thing [same bitrate , same size]

Name of the event:      Stardom New Years Stars 2020 – Tag 3 (Afternoon Show)
Date:                     11.01.2020
Promotion:                 World Wonder Ring Stardom
Type:                     Event
Location:                 Osaka, Japan
Arena:                     Osaka World Pavilion
Attendance:                 221

01. Tag Team Match: Itsuki Hoshino & Saya Iida vs. Queen’s Quest (AZM & Utami Hayashishita)
02. Singles Match: Riho vs. Andras Miyagi
03. High Speed Grand Prix Match: Starlight Kid vs. Leyla Hirsch
04. Six Man Tag Team Match: Queen’s Quest (Bea Priestley, Leo Onozaki & Momo Watanabe) vs. Oedo Tai (Jamie Hayter & Saki Kashima) & Zoey Skye
05. Singles Match: Kagetsu vs. Giulia
06. Eight Man Tag Team Match: Saya Kamitani & STARS (Arisa Hoshiki, Mayu Iwatani & Tam Nakano) vs. Tokyo Cyber Squad (Death Yama-san, Hana Kimura, Jungle Kyona & Konami)

file:  2.6 GB
Video:  1920 x 1080| AVC | ~ 3500 kb/s | 30 fps
Audio:  stereo | AAC LC | 128 kb/s  | 48 kHz

General
Complete name : Stardom.New.Years.Stars.2020.Osaka.Day.1080p.WEBRip.x264-WH.mp4
Format : MPEG-4
Codec ID : isom (isom)
File size : 2.57 GiB
Duration : 1 h 39 min
Overall bit rate mode : Variable
Overall bit rate : 3 692 kb/s

Video
Codec ID : avc1
Codec ID/Info : Advanced Video Coding
Duration : 1 h 39 min
Bit rate : 3 496 kb/s
Maximum bit rate : 7 183 kb/s
Width : 1 920 pixels
Height : 1 080 pixels
Display aspect ratio : 16:9
Frame rate mode : Variable
Frame rate : 30.000 FPS
Minimum frame rate : 29.990 FPS
Maximum frame rate : 30.010 FPS
Color space : YUV
Chroma subsampling : 4:2:0
Bit depth : 8 bits
Scan type : Progressive
Bits/(Pixel*Frame) : 0.056
Stream size : 2.43 GiB (95%)
Codec configuration box : avcC

Audio
Codec ID : mp4a-40-2
Duration : 1 h 39 min
Bit rate mode : Variable
Bit rate : 192 kb/s
Maximum bit rate : 229 kb/s
Channel(s) : 2 channels
Channel layout : L R
Sampling rate : 48.0 kHz
Frame rate : 46.875 FPS (1024 SPF)
Compression mode : Lossy
Stream size : 136 MiB (5%)

Name of the event:      Stardom New Years Stars 2020 (Evening Show)
Date:                  11.02.2020
Promotion:              World Wonder Ring Stardom
Type:                  Event
Location:              Osaka, Japan
Arena:                  Osaka World Pavilion

01. Singles Match: Jamie Hayter vs. Leo Onozaki
02. Three Way Match: Konami vs. Bea Priestley vs. Itsuki Hoshino
03. High Speed Grand Prix Match: Death Yama-san vs. Zoey Skye
04. Six Man Tag Team Match: Oedo Tai (Natsuko Tora, Natsu Sumire & Saki Kashima) vs. STARS (Saya Iida, Starlight Kid & Tam Nakano)
05. Six Man Tag Team Match: Queen’s Quest (AZM, Momo Watanabe & Utami Hayashishita) vs. Tokyo Cyber Squad (Hana Kimura, Jungle Kyona & Leyla Hirsch)
06. Six Man Tag Team Match: AMA (Arisa Hoshiki & Mayu Iwatani) & Saya Kamitani vs. Donna del Mondo (Giulia, Maika & Syuri Kondo)

file:  2.5 GB
Video:  1920 x 1080| AVC | ~ 3500 kb/s | 30 fps
Audio:  stereo | AAC LC | 128 kb/s  | 48 kHz

General
Complete name : Stardom.New.Years.Stars.2020.Osaka.Night.1080p.WEBRip.x264-WH.mp4
Format : MPEG-4
Codec ID : isom (isom)
File size : 2.50 GiB
Duration : 1 h 36 min
Overall bit rate mode : Variable
Overall bit rate : 3 691 kb/s

Video
Format : AVC
Codec ID : avc1
Codec ID/Info : Advanced Video Coding
Duration : 1 h 36 min
Bit rate : 3 496 kb/s
Maximum bit rate : 7 134 kb/s
Width : 1 920 pixels
Height : 1 080 pixels
Display aspect ratio : 16:9
Frame rate mode : Variable
Frame rate : 30.000 FPS
Minimum frame rate : 29.990 FPS
Maximum frame rate : 30.010 FPS
Color space : YUV
Chroma subsampling : 4:2:0
Bit depth : 8 bits
Scan type : Progressive
Bits/(Pixel*Frame) : 0.056
Stream size : 2.36 GiB (95%)
Codec configuration box : avcC

Audio
ID : 2
Codec ID : mp4a-40-2
Duration : 1 h 36 min
Bit rate mode : Variable
Bit rate : 192 kb/s
Maximum bit rate : 229 kb/s
Channel(s) : 2 channels
Channel layout : L R
Sampling rate : 48.0 kHz
Frame rate : 46.875 FPS (1024 SPF)
Compression mode : Lossy
Stream size : 132 MiB (5%)

Stardom New Years Stars 2020 Osaka 1080p -WH

Stardom New Years Stars 2020 Osaka 1080p -WH

c

Stardom New Years Stars 2020 Osaka 1080p -WH

Buy Premium or Extend From here to Support WH

Stardom New Years Stars 2020 Osaka 1080p -WH

About PH.M.H

[Wrestling Best Uploader]

View all posts by PH.M.H