Stardom JTO Future of Stardom Title-Korakuen 1080p

Stardom 2020 01 14 JTO Future of Stardom Title-Korakuen 1080p WEB-momoMark

Stardom JTO Future of Stardom Title-Korakuen 1080p

General
Complete name : Future.of.Stardom.Title..Utami.Hayashishita(c).vs.Maika.mp4
Format : MPEG-4
Format profile : Base Media / Version 2
Codec ID : mp42
File size : 530 MiB
Duration : 20mn 4s
Overall bit rate : 3 694 Kbps

Video
ID : 1
Format : AVC
Format settings, GOP : M=3, N=16
Codec ID : avc1
Duration : 20mn 4s
Bit rate mode : Variable
Bit rate : 3 498 Kbps
Width : 1 920 pixels
Height : 1 080 pixels
Display aspect ratio : 16:9
Frame rate mode : Variable
Frame rate : 30.000 fps
Minimum frame rate : 29.990 fps
Maximum frame rate : 30.010 fps
Color space : YUV
Chroma subsampling : 4:2:0
Bit depth : 8 bits
Scan type : Progressive
Bits/(Pixel*Frame) : 0.056
Stream size : 502 MiB (95%)

Audio
ID : 2
Format : AAC
Format profile : LC
Codec ID : 40
Duration : 20mn 4s
Bit rate mode : Variable
Bit rate : 192 Kbps
Channel(s) : 2 channels
Channel positions : Front: L R
Sampling rate : 48.0 KHz
Compression mode : Lossy
Stream size : 27.4 MiB (5%)


ddl.to/ry5yqo908dgr
dropapk.to/79n3kvd8ymuo
earn4files.com/8wbzxdicxw0x
fileup.cc/xdmsuiw9tm4d
mixloads.com/myn0l3ekjpbk
rapidgator.net/file/6f5ab91812797ba17316b86fde44496a
speed-down.org/4wteec6bavss
ul.to/qvehwoef
uploadgig.com/file/download/45d52c5963b8a538
nitroflare.com/view/70D67CC4863ECF6

 86 total views,  1 views today

Stardom JTO Future of Stardom Title-Korakuen 1080p

Buy Premium or Extend From here to Support WH

About PH.M.H

[Wrestling Best Uploader]

View all posts by PH.M.H

5 Comments on “Stardom JTO Future of Stardom Title-Korakuen 1080p”

  1. i hope that bro , first of all u should know i cann’t bring All events by myself
    so i depend on original releaser when they upload i re download from their
    work then my work start to upload these material , so if i find these materials
    i will bring them to WH . if no releaser later i will thing to be first releaser of
    these materials

  2. @PH.M.H So you steal other peoples uploads, give them no credit, beg for money from people visit this site so that you can keep stealing other peoples uploads. No wonder there is a message for you on the 2020.01.11 Osaka Night show of Stardom, you really are that.

    1. It seems u are blind man , did u see the title lol it’s with pink background !!!
      I think it is called Stardom 2020 01 14 JTO Future of Stardom Title-Korakuen 1080p WEB-momoMark ( before ur dirty talk) open ur eye instead of opening ur ass

Leave a Reply

Your email address will not be published. Required fields are marked *