Stardom FC My Stardom Stardom Is Again 2020 06 21

Stardom FC My Stardom Stardom Is Again 2020 06 21 1080p WEBRip x264-NoGRP

Stardom FC My Stardom Stardom Is Again 2020 06 21
File information

General
Complete name : Stardom.FC.My.Stardom.Stardom.Is.Again.2020.06.21.1080p.WEB.x264-NoGRP.mp4
Format : MPEG-4
Format profile : Base Media
Codec ID : isom (isom/iso2/avc1/mp41)
File size : 2.72 GiB
Duration : 1 h 45 min
Overall bit rate mode : Variable
Overall bit rate : 3 700 kb/s
Writing application : Stardom

Video – Stardom
Format : AVC
Codec ID : avc1
Duration : 1 h 45 min
Bit rate : 3 500 kb/s
Width : 1 920 pixels
Height : 1 080 pixels
Display aspect ratio : 16:9
Frame rate mode : Constant
Frame rate : 29.970 (30000/1001) FPS
Color space : YUV
Chroma subsampling : 4:2:0
Bit depth : 8 bits
Scan type : Progressive
Bits/(Pixel*Frame) : 0.056
Stream size : 2.57 GiB (95%)
Codec configuration box : avcC – Stardom

Audio
ID : Stardom
Format : AAC LC
Codec ID : mp4a-40-2
Duration : 1 h 45 min
Bit rate mode : Variable
Bit rate : 192 kb/s
Maximum bit rate : 204 kb/s
Channel(s) : 2 channels
Channel layout : L R
Sampling rate : 48.0 kHz
Frame rate : 46.875 FPS (1024 SPF)
Compression mode : Lossy
Stream size : 144 MiB (5%)
Default : Stardom
Alternate group : Stardom

Single download links

Rapidgator // Nitroflare // Uploadgig

References

Homepage vip Site

 608 total views,  4 views today

Stardom FC My Stardom Stardom Is Again 2020 06 21

WH : Source OF Wrestling Releases / Home OF WH Releases

Buy Premium or Renew From WH Links to Keep it Alive

About PH.M.H

[Wrestling Best Uploader]

View all posts by PH.M.H →

Leave a Reply

Your email address will not be published. Required fields are marked *