Stardom 9th Anniversary in Osaka 2020 1080p -WH

Spread the love

Stardom 9th Anniversary in Osaka 2020 1080p WEBRIP x264-WH

Stardom 9th Anniversary in Osaka 2020 1080p -WH

General
Name : Stardom.2020.01.26.9th.Anniversary.in.Osaka.2020.1080p.WEBRIP.x264-WH.mp4
Format : MPEG-4
Format profile : Base Media
Codec ID : isom (isom)
File size : 4.15 GiB
Duration : 2 h 41 min
Overall bit rate mode : Variable
Overall bit rate : 3 691 kb/s

Video
Format settings, Reference : 4 frames
Format settings, GOP : M=3, N=30
Codec ID : avc1
Codec ID/Info : Advanced Video Coding
Duration : 2 h 41 min
Bit rate : 3 495 kb/s
Maximum bit rate : 7 457 kb/s
Width : 1 920 pixels
Height : 1 080 pixels
Display aspect ratio : 16:9
Frame rate mode : Variable
Frame rate : 30.000 FPS
Minimum frame rate : 29.990 FPS
Maximum frame rate : 30.010 FPS
Color space : YUV
Chroma subsampling : 4:2:0
Bit depth : 8 bits
Scan type : Progressive
Bits/(Pixel*Frame) : 0.056
Stream size : 3.93 GiB (95%)
Codec configuration box : avcC

Audio
ID : 2
Format : AAC LC
Codec ID : mp4a-40-2
Duration : 2 h 41 min
Bit rate mode : Variable
Bit rate : 192 kb/s
Maximum bit rate : 229 kb/s
Channel(s) : 2 channels
Channel layout : L R
Sampling rate : 48.0 kHz
Frame rate : 46.875 FPS (1024 SPF)
Compression mode : Lossy
Stream size : 220 MiB (5%)

whvip

Stardom 9th Anniversary in Osaka 2020 1080p -WH

About PH.M.H

[Wrestling Best Uploader]

View all posts by PH.M.H →

2 Comments on “Stardom 9th Anniversary in Osaka 2020 1080p -WH”

Leave a Reply

Your email address will not be published. Required fields are marked *