Ice Ribbon New Ice Ribbon 962 Osaka Ribbon 720p

Ice Ribbon 2019 05 25 New Ice Ribbon 962 Osaka Ribbon 720p WEB h264-PuroresuDream

Date: 2019.05.25        
Location: Osaka, Japan 
Venue: Hirano Kumin Hall 

Ice Ribbon New Ice Ribbon 962 Osaka Ribbon 720p

Ice Ribbon 2019 05 25 New Ice Ribbon 962 Osaka Ribbon 720p WEB h264-PuroresuDream

Date: 2019.05.25        
Location: Osaka, Japan 
Venue: Hirano Kumin Hall 


__________________________ 

Card: 

Tag Team Match 
Kyuri & Miyuki Takase vs. Makoto & Tsukushi 

Three Way Match 
Banny Oikawa vs. Matsuya Uno vs. Miyako Matsumoto 

Six Woman Tag Team Match 
Frank Sisters (Akane Fujita, Hiragi Kurumi & Mochi Miyagi) vs. Hamuko Hoshi, Ibuki Hoshi & Tsukasa Fujimoto 

Singles Match 
Rina Yamashita vs. Satsuki Totoro 

Kizuna Tournament Semi Final Match 
Maika Ozaki & Tequila Saya vs. Risa Sera & Suzu Suzuki 

ICExInfinity Title Match 
Maya Yukihi (c) vs. Giulia 

__________________________ 

File Details: 

Release Date: 2019.06.10 
Size: 1.68GB 
Time: 2h 10m 
Resolution: 1280 x 720 
Video: h264 @ 1713 kb/s 
Audio: AAC @ 127 kb/s

General
Complete name : Ice.Ribbon.2019.05.25.New.Ice.Ribbon.962.Osaka.Ribbon.720p.WEB.h264-PuroresuDream.mp4
Format : MPEG-4
Format profile : Base Media / Version 2
Codec ID : mp42 (isom/mp42)
File size : 1.68 GiB
Duration : 2 h 10 min
Overall bit rate mode : Variable
Overall bit rate : 1 844 kb/s
Encoded date : UTC 2019-06-13 18:50:04
Tagged date : UTC 2019-06-14 00:51:37
Writing application : Google

Video
ID : 1
Format : AVC
Format/Info : Advanced Video Codec
Format profile : [email protected]
Format settings : CABAC / 1 Ref Frames
Format settings, CABAC : Yes
Format settings, Reference : 1 frame
Format settings, GOP : M=1, N=60
Codec ID : avc1
Codec ID/Info : Advanced Video Coding
Duration : 2 h 10 min
Bit rate : 1 714 kb/s
Width : 1 280 pixels
Height : 720 pixels
Display aspect ratio : 16:9
Frame rate mode : Constant
Frame rate : 30.000 FPS
Color space : YUV
Chroma subsampling : 4:2:0
Bit depth : 8 bits
Scan type : Progressive
Bits/(Pixel*Frame) : 0.062
Stream size : 1.56 GiB (93%)
Title : ISO Media file produced by Google Inc. Created on: 06/13/2019.
Writing library : x264 core 155 r2901 7d0ff22
Encoded date : UTC 2019-06-14 00:51:37
Tagged date : UTC 2019-06-14 00:51:37
Color range : Limited
Color primaries : BT.709
Transfer characteristics : BT.709
Matrix coefficients : BT.709
Codec configuration box : avcC

Audio
ID : 2
Format : AAC LC
Format/Info : Advanced Audio Codec Low Complexity
Codec ID : mp4a-40-2
Duration : 2 h 10 min
Bit rate mode : Variable
Bit rate : 128 kb/s
Channel(s) : 2 channels
Channel layout : L R
Sampling rate : 44.1 kHz
Frame rate : 43.066 FPS (1024 SPF)
Compression mode : Lossy
Stream size : 119 MiB (7%)
Title : ISO Media file produced by Google Inc. Created on: 06/13/2019.
Encoded date : UTC 2019-06-14 00:51:37
Tagged date : UTC 2019-06-14 00:51:37

Ice Ribbon New Ice Ribbon 962 Osaka Ribbon 720p

1fichier.com/?wlpeq3fcfgw5po8mvay0
anonfile.com/4bA2q1ven5
bayfiles.com/EaC7q1vfn7
bitster.cz/file/54db14
ddl.to/9dsxbc3xl6jz
dl.free.fr/jJQ2SAjb1
file.bz/uaC7qcv9n5
www.filefactory.com/file/43a1b4otbnav
filerio.in/inlvbffhdfg5
multiup.org/download/ddb13806583c04690eca09bece79ebf1
nitroflare.com/view/D75D1D171285ED7
rg.to/file/d101410d347c3eb4c4523264c2045eb2
turbobit.net/co3qwpkfeopk.html
uploadgig.com/file/download/1c260fbf9a2262e8

 99 total views,  1 views today

Ice Ribbon New Ice Ribbon 962 Osaka Ribbon 720p

WH : Source OF Wrestling Releases / Home OF WH Releases

Buy Premium or Renew From WH Links to Keep it Alive

About PH.M.H

[Wrestling Best Uploader]

View all posts by PH.M.H →

6 Comments on “Ice Ribbon New Ice Ribbon 962 Osaka Ribbon 720p”

    1. really alot of GBs i upload were wasted cuz of time i need stuff to post my links
      take these links till i post them

      1fichier.com/?4y72mx39fbj0mlp3et16
      anonfile.com/Q4i8A4y2n6
      bayfiles.com/Q3h2Acy8ne
      dl.free.fr/g9tIUbleP
      file.bz/Mah3A7ydn3
      megaupload.nz/Wfi1A0y4nb
      multiup.org/download/650ed7c499d2d5b34f88ae94824a181e/Sendai.Girls.2019.06.09.Sendai.Girls.At.Shin-Kiba.WEB.h264-PuroresuDream.mp4
      openload.co/f/NJ6YbLhWSHQ/Sendai.Girls.2019.06.09.Sendai.Girls.At.Shin-Kiba.WEB.h264-PuroresuDream.mp4
      subyshare.com/zcxlwqhc1fvi/Sendai.Girls.2019.06.09.Sendai.Girls.At.Shin-Kiba.WEB.h264-PuroresuDream.mp4.html
      turbobit.net/bxi18a3naz7k.html
      uploadgig.com/file/download/70d544429c638185/Sendai.Girls.2019.06.09.Sendai.Girls.At.Shin-Kiba.WEB.h264-PuroresuDream.mp4
      uptobox.com/jm8qrm6qe1y3
      uptomega.com/hj84kuyc7pbo
      userscloud.com/in0ou04cbokv
      verystream.com/stream/Kd37v3dL47L/Sendai.Girls.2019.06.09.Sendai.Girls.At.Shin-Kiba.WEB.h264-PuroresuDream.mp4
      www.wdupload.com/file/BL-y-wIwDNiwRxVzUjP8mA/Sendai.Girls.2019.06.09.Sendai.Girls.At.Shin-Kiba.WEB.h264-PuroresuDream.mp4

      1fichier.com/?xw0t334urr73vvhoprdk
      dl.bdupload.in/vi4tll801shp
      multiup.org/download/4bc0a6de9592b76bde69413e7071f8c0/Ice.Ribbon.2019.06.26.P_s.Party.31.WEB.h264-PuroresuDream.mp4
      nitroflare.com/view/937694A71F242F6/Ice.Ribbon.2019.06.26.P%27s.Party.31.WEB.h264-PuroresuDream.mp4
      subyshare.com/l18024djac9p/Ice.Ribbon.2019.06.26.P
      uploadgig.com/file/download/1Ff5fc5968549e7b/Ice.Ribbon.2019.06.26.Ps.Party.31.WEB.h264-PuroresuDream.mp4
      uptomega.com/3rrowlsn719s
      userscloud.com/mhn0avyq8ncr
      www.wdupload.com/file/_S-7Pxr8s8Xqxvc3rJiqXA/Ice.Ribbon.2019.06.26.P's.Party.31.WEB.h264-PuroresuDream.mp4

      dl.bdupload.in/7b32mcboos4k
      multiup.org/download/637fe359e4fdfe01f059bce34cc3625b/Ice.Ribbon.2019.06.30.New.Ice.Ribbon._968.In.SKIP.City.WEB.h264-PuroresuDream.mp4
      nitroflare.com/view/CB9CADD4B6CEA16/Ice.Ribbon.2019.06.30.New.Ice.Ribbon.%23968.In.SKIP.City.WEB.h264-PuroresuDream.mp4
      subyshare.com/538ypdfg7aem/Ice.Ribbon.2019.06.30.New.Ice.Ribbon.#968.In.SKIP.City.WEB.h264-PuroresuDream.mp4.html
      uploadgig.com/file/download/73121a59832cCfb8/Ice.Ribbon.2019.06.30.New.Ice.Ribbon.968.In.SKIP.City.WEB.h264-PuroresuDream.mp4
      uptomega.com/azwloob7s03b
      userscloud.com/ncrp9i083myr
      www.wdupload.com/file/HEOpEPujioCflqvr5kLhcQ/Ice.Ribbon.2019.06.30.New.Ice.Ribbon.#968.In.SKIP.City.WEB.h264-PuroresuDream.mp4

Leave a Reply

Your email address will not be published. Required fields are marked *