WWE Raw Talk 2020 06 22 1080i HDTV -WH

WWE Raw Talk 2020 06 22 1080i HDTV -WH [2.3 GB]

WWE Raw Talk 2020 06 22 1080i HDTV -WH

General
Complete name : WWE.Raw.Talk.2020.06.22.1080i.HDTV-WH.ts
Format : MPEG-TS
File size : 2.30 GiB
Duration : 21 min 28 s
Overall bit rate mode : Variable
Overall bit rate : 15.3 Mb/s

Video
Format : AVC
Codec ID : 27
Duration : 21 min 28 s
Bit rate : 13.9 Mb/s
Width : 1 920 pixels
Height : 1 080 pixels
Display aspect ratio : 16:9
Frame rate : 25.000 FPS
Color space : YUV
Chroma subsampling : 4:2:0
Bit depth : 8 bits
Scan type : Interlaced
Scan type, store method : Separated fields
Scan order : Top Field First
Bits/(Pixel*Frame) : 0.269
Stream size : 2.09 GiB (91%)
Color range : Limited
Color primaries : BT.709
Transfer characteristics : BT.709
Matrix coefficients : BT.709

Audio #1
Format : MPEG Audio
Codec ID : 3
Duration : 21 min 28 s
Bit rate mode : Constant
Bit rate : 320 kb/s
Channel(s) : 2 channels
Sampling rate : 48.0 kHz
Frame rate : 41.667 FPS (1152 SPF)
Compression mode : Lossy
Stream size : 49.1 MiB (2%)
Language : English

Audio #2
Format : MPEG Audio
Codec ID : 3
Duration : 21 min 28 s
Bit rate mode : Constant
Bit rate : 320 kb/s
Channel(s) : 2 channels
Sampling rate : 48.0 kHz
Frame rate : 41.667 FPS (1152 SPF)
Compression mode : Lossy
Stream size : 49.1 MiB (2%)
Language : English

WWE Raw Talk 2020 06 22 1080i HDTV -WH
WWE Raw Talk 2020 06 22 1080i HDTV -WH
WWE Raw Talk 2020 06 22 1080i HDTV -WH
WWE Raw Talk 2020 06 22 1080i HDTV -WH

 289 total views,  1 views today

WWE Raw Talk 2020 06 22 1080i HDTV -WH

WH : Source OF Wrestling Releases / Home OF WH Releases

Buy Premium or Renew From WH Links to Keep it Alive

About PH.M.H

[Wrestling Best Uploader]

View all posts by PH.M.H →

One Comment on “WWE Raw Talk 2020 06 22 1080i HDTV -WH”

Leave a Reply

Your email address will not be published. Required fields are marked *