WWE NXT 2020 01 29 540p WEBRIP x264-WH

WWE NXT 2020 01 29 540p WEBRIP x264-WH

WWE NXT 2020 01 29 540p WEBRIP x264-WH

General
Complete name : WWE.NXT.2020.01.29.540p.WEBRIP.x264-WH.mp4
Format : MPEG-4
Format profile : Base Media
Codec ID : isom
File size : 2.10 GiB
Duration : 1h 34mn
Overall bit rate : 3 182 Kbps
Writing application : Lavf56.15.102

Video
ID : 1
Format : AVC
Format settings, ReFrames : 2 frames
Codec ID : avc1
Codec ID/Info : Advanced Video Coding
Duration : 1h 34mn
Bit rate : 3 000 Kbps
Width : 960 pixels
Height : 540 pixels
Display aspect ratio : 16:9
Frame rate mode : Constant
Frame rate : 60.000 fps
Color space : YUV
Chroma subsampling : 4:2:0
Bit depth : 8 bits
Scan type : Progressive
Bits/(Pixel*Frame) : 0.096
Stream size : 1.99 GiB (95%)
Writing library : x264 core 142
Language : English

Audio
ID : 2
Format : AAC
Codec ID : 40
Duration : 1h 34mn
Bit rate mode : Variable
Bit rate : 152 Kbps
Maximum bit rate : 224 Kbps
Channel(s) : 2 channels
Channel positions : Front: L R
Sampling rate : 44.1 KHz
Compression mode : Lossy
Stream size : 103 MiB (5%)
Language : English


fileup.cc/6j2jukte9fxi

nitroflare.com/view/6CEE0590C205676

rapidgator.net/file/45ac1a28dcf7b343275326e839927d4b

rockfile.co/m29qltg30p2n.html

 78 total views,  1 views today

WWE NXT 2020 01 29 540p WEBRIP x264-WH

WH : Source OF Wrestling Releases / Home OF WH Releases

Buy Premium or Renew From WH Links to Keep it Alive

About PH.M.H

[Wrestling Best Uploader]

View all posts by PH.M.H →

Leave a Reply

Your email address will not be published. Required fields are marked *