WWE Backstage 2020 01 28 720p HDTV x264-WH

WWE Backstage 2020 01 28 720p HDTV x264-WH

WWE Backstage 2020 01 28 720p HDTV x264-WH

General
Complete name : WWE.Backstage.2020.01.28.720p.HDTV.x264-WH.mp4
Format : MPEG-4
Codec ID : isom
File size : 1.83 GiB
Duration : 39mn 43s
Overall bit rate : 6 606 Kbps
Writing application : Lavf55.33.100

Video
ID : 2
Format : AVC
Codec ID : avc1
Duration : 39mn 43s
Bit rate mode : Constant
Bit rate : 6 464 Kbps
Width : 1 280 pixels
Height : 720 pixels
Display aspect ratio : 16:9
Frame rate : 59.940 fps
Standard : Component
Color space : YUV
Chroma subsampling : 4:2:0
Bit depth : 8 bits
Scan type : Progressive
Bits/(Pixel*Frame) : 0.117
Stream size : 1.80 GiB (98%)

Audio
ID : 1
Format : AAC
Format/Info : Advanced Audio Codec
Format profile : LC
Codec ID : 40
Duration : 39mn 43s
Bit rate mode : Constant
Bit rate : 125 Kbps
Channel(s) : 2 channels
Channel positions : Front: L R
Sampling rate : 48.0 KHz
Compression mode : Lossy
Stream size : 35.6 MiB (2%)

Text
ID : 2-608-1
Format : EIA-608
Muxing mode : AVC / SCTE 128 / DTVCC Transport


ddl.to/x2wxd3ypbu11
filefox.cc/52bah7dzg7fs
fileup.cc/vna3qb69kiz8
rapidgator.net/file/aca3b157f54dd26786bf17415977c6f1
rockfile.co/mtl29pp7yzh1.html
uploadgig.com/file/download/C90Dd402775f5210
k2s.cc/file/1acde460b3d2f

 89 total views,  1 views today

WWE Backstage 2020 01 28 720p HDTV x264-WH

WH : Source OF Wrestling Releases / Home OF WH Releases

Buy Premium or Renew From WH Links to Keep it Alive

About PH.M.H

[Wrestling Best Uploader]

View all posts by PH.M.H →

2 Comments on “WWE Backstage 2020 01 28 720p HDTV x264-WH”

Leave a Reply

Your email address will not be published. Required fields are marked *