UFC Stockholm Inside The Octagon Gustafsson vs Smith 1080p WEB x264-WH

UFC Stockholm Inside The Octagon Gustafsson vs Smith 1080p WEB x264-WH
UFC Stockholm Inside The Octagon Gustafsson vs Smith 1080p WEB x264-WH
UFC Stockholm Inside The Octagon Gustafsson vs Smith 1080p WEB x264-WH

General
Complete name               : UFC.Stockholm.Inside.the.Octagon.Gustafsson.vs.Smith.1080p.WEB.x264-WH.mp4
Format                      : MPEG-4
Format profile              : Base Media
Codec ID                    : isom (isom/iso2/avc1/mp41)
File size                   : 418 MiB
Duration                    : 23 min 35 s
Overall bit rate mode       : Variable
Overall bit rate            : 2 479 kb/s
Encoded date                : UTC 2019-05-27 22:27:39
Tagged date                 : UTC 2019-05-27 22:27:39

Video
ID                          : 1
Format                      : AVC
Format/Info                 : Advanced Video Codec
Format profile              : [email protected]
Format settings             : CABAC / 3 Ref Frames
Format settings, CABAC      : Yes
Format settings, Reference  : 3 frames
Codec ID                    : avc1
Codec ID/Info               : Advanced Video Coding
Duration                    : 23 min 35 s
Bit rate                    : 2 348 kb/s
Width                       : 1 920 pixels
Height                      : 1 080 pixels
Display aspect ratio        : 16:9
Frame rate mode             : Constant
Frame rate                  : 25.000 FPS
Color space                 : YUV
Chroma subsampling          : 4:2:0
Bit depth                   : 8 bits
Scan type                   : Progressive
Bits/(Pixel*Frame)          : 0.045
Stream size                 : 396 MiB (95%)
Title                       : ISO Media file produced by Google Inc. Created on: 05/27/2019.
Writing library             : x264 core 155 r2901 7d0ff22
Encoded date                : UTC 2019-05-27 22:27:39
Tagged date                 : UTC 2019-05-27 22:27:39
Color range                 : Limited
Color primaries             : BT.709
Transfer characteristics    : BT.709
Matrix coefficients         : BT.709
Codec configuration box     : avcC

Audio
ID                          : 2
Format                      : AAC LC
Format/Info                 : Advanced Audio Codec Low Complexity
Codec ID                    : mp4a-40-2
Duration                    : 23 min 35 s
Bit rate mode               : Variable
Bit rate                    : 128 kb/s
Channel(s)                  : 2 channels
Channel layout              : L R
Sampling rate               : 44.1 kHz
Frame rate                  : 43.066 FPS (1024 SPF)
Compression mode            : Lossy
Stream size                 : 21.6 MiB (5%)
Title                       : ISO Media file produced by Google Inc. Created on: 05/27/2019.
Language                    : English
Default                     : Yes
Alternate group             : 1
Encoded date                : UTC 2019-05-27 21:49:01
Tagged date                 : UTC 2019-05-27 21:49:01

UFC Stockholm Inside The Octagon Gustafsson vs Smith 1080p WEB x264-WH

1fichier.com/?po2rbdgj2xl7bzqk0jmf
anonfile.com/Obt2C3tbnc
bayfiles.com/Z3t5Cdtcnd
bitster.cz/file/b74310
ddl.to/gdtnlw1436lu
dl.free.fr/kUq1Lk0To
file.bz/W4tdC3tanf
www.filefactory.com/file/52zcambn1dzh
filerio.in/2xv4098r526d
filescdn.net/7sy9yh9r5fb5
nitroflare.com/view/F4B7417B3E3D4C8
openload.co/f/3PL5-FhdepE
rg.to/file/b08dc050b2f88b62718d6b1713fc3629
turbobit.net/exe5dno0oyho.html

 104 total views,  1 views today

UFC Stockholm Inside The Octagon Gustafsson vs Smith 1080p WEB x264-WH

WH : Source OF Wrestling Releases / Home OF WH Releases

Buy Premium or Renew From WH Links to Keep it Alive

About PH.M.H

[Wrestling Best Uploader]

View all posts by PH.M.H →

Leave a Reply

Your email address will not be published. Required fields are marked *