UFC 238 Cejudo vs Moraes WEB x264-WH

UFC 238 Cejudo vs Moraes WEB x264-WH

UFC 238 Cejudo vs Moraes WEB x264-WH

UFC 238 Cejudo vs Moraes WEB x264-WH

Name – UFC.238.Cejudo.vs.Moraes.WEB.x264-WH
Released – 06.09.2019
Aired – 06.08.2019
SOURCE – 1080.WD
Size – 2.10 GB
Container – MP4
Resolution – 712 x 400 (16:9) @ 25 FPS
Video – x264 @ 1500 KBPS
Audio – AAC 128 KBPS
Length – 03:04:49
Encoder – WH Crew

General
Complete name : UFC.238.Cejudo.vs.Moraes.WEB.x264-WH.mp4
Format : MPEG-4
Format profile : Base Media
Codec ID : isom (isom/iso2/avc1/mp41)
File size : 2.11 GiB
Duration : 3 h 4 min
Overall bit rate : 1 634 kb/s
Encoded date : UTC 2019-06-08 05:12:23
Tagged date : UTC 2019-06-08 05:12:23
Writing application : Lavf56.15.102

Video
ID : 1
Format : AVC
Format/Info : Advanced Video Codec
Format profile : [email protected]
Format settings : 2 Ref Frames
Format settings, CABAC : No
Format settings, Reference : 2 frames
Codec ID : avc1
Codec ID/Info : Advanced Video Coding
Duration : 3 h 4 min
Bit rate : 1 500 kb/s
Width : 712 pixels
Height : 400 pixels
Display aspect ratio : 16:9
Frame rate mode : Constant
Frame rate : 25.000 FPS
Color space : YUV
Chroma subsampling : 4:2:0
Bit depth : 8 bits
Scan type : Progressive
Bits/(Pixel*Frame) : 0.211
Stream size : 1.94 GiB (92%)
Writing library : x264 core 142
Encoded date : UTC 2019-06-08 05:12:23
Tagged date : UTC 2019-06-08 05:12:23
Codec configuration box : avcC

Audio
ID : 2
Format : AAC LC
Format/Info : Advanced Audio Codec Low Complexity
Codec ID : mp4a-40-2
Duration : 3 h 4 min
Duration_LastFrame : -7 ms
Bit rate mode : Constant
Bit rate : 128 kb/s
Channel(s) : 2 channels
Channel layout : L R
Sampling rate : 44.1 kHz
Frame rate : 43.066 FPS (1024 SPF)
Compression mode : Lossy
Stream size : 169 MiB (8%)
Default : Yes
Alternate group : 1
Encoded date : UTC 2019-06-08 05:12:23
Tagged date : UTC 2019-06-08 05:12:23

UFC 238 Cejudo vs Moraes WEB x264-WH

1fichier.com/?4faq2odbiu03lmmrcbxd

dl.free.fr/gdQufRuBK
filerio.in/24iehh40z18q
multiup.org/download/16ce263df0fd50b9fa23d402314ae374
turbobit.net/oqn5f756il56.html

www.filefactory.com/file/3oznb6dftxhh
filescdn.net/icor1tcq3nzs
rg.to/file/85d2c3c011615de81edabf5e3b727c22

bayfiles.com/O0K17eudn9

anonfile.com/j0K57cufn5
bitster.cz/file/75cca6
file.bz/h3K877ubn1
openload.co/f/SxIWGOXxqEg

 84 total views,  1 views today

UFC 238 Cejudo vs Moraes WEB x264-WH

WH : Source OF Wrestling Releases / Home OF WH Releases

Buy Premium or Renew From WH Links to Keep it Alive

About PH.M.H

[Wrestling Best Uploader]

View all posts by PH.M.H →

Leave a Reply

Your email address will not be published. Required fields are marked *