Top Rank Boxing 2019 06 01 WEB-DL x264-WH

Top Rank Boxing 2019 06 01 WEB-DL x264-WH

Top Rank Boxing 2019 06 01 WEB-DL x264-WH

Top Rank Boxing 2019 06 01 WEB-DL x264-WH

Name – Top.Rank.Boxing.2019.06.01.WEB-DL.x264-WH
Released – 06.03.2019
Aired – 06.01.2019
SOURCE – 1080i.titotrinidad
Size – 2.43 GB
Container – MP4
Resolution – 712 x 400 (16:9) @ 25 FPS
Video – x264 @ 1500 KBPS
Audio – AAC 128 KBPS
Length – 03:33:52
Encoder – WH Crew

Top Rank Boxing 2019 06 01 WEB-DL x264-WH

MATCH CARD

Jay Harris vs. Angel Moreno
vacant EBU European Flyweight Title

Sultan Zaurbek vs. Sergio Gonzalez
Zhankosh Turarov vs. Richmond Djarbeng
Jacob Robinson vs. Jose Aguilar
Craig Evans vs. Stephen Ormond

General
Complete name : Top.Rank.Boxing.2019.06.01.WEB-DL.x264-WH.mp4
Format : MPEG-4
Format profile : Base Media
Codec ID : isom (isom/iso2/avc1/mp41)
File size : 2.44 GiB
Duration : 3 h 33 min
Overall bit rate : 1 633 kb/s
Writing application : Lavf56.15.102

Video
ID : 1
Format : AVC
Format/Info : Advanced Video Codec
Format profile : [email protected]
Format settings : 2 Ref Frames
Format settings, CABAC : No
Format settings, Reference : 2 frames
Codec ID : avc1
Codec ID/Info : Advanced Video Coding
Duration : 3 h 33 min
Bit rate : 1 500 kb/s
Width : 712 pixels
Height : 400 pixels
Display aspect ratio : 16:9
Frame rate mode : Constant
Frame rate : 25.000 FPS
Color space : YUV
Chroma subsampling : 4:2:0
Bit depth : 8 bits
Scan type : Progressive
Bits/(Pixel*Frame) : 0.211
Stream size : 2.24 GiB (92%)
Writing library : x264 core 142
Codec configuration box : avcC

Audio
ID : 2
Format : AAC LC
Format/Info : Advanced Audio Codec Low Complexity
Codec ID : mp4a-40-2
Duration : 3 h 33 min
Duration_LastFrame : -2 ms
Bit rate mode : Constant
Bit rate : 128 kb/s
Channel(s) : 2 channels
Channel layout : L R
Sampling rate : 44.1 kHz
Frame rate : 43.066 FPS (1024 SPF)
Compression mode : Lossy
Stream size : 196 MiB (8%)
Default : Yes
Alternate group : 1

Top Rank Boxing 2019 06 01 WEB-DL x264-WH

1fichier.com/?og1z6utobf7p1paj1ynw
anonfile.com/U2z4M2t5n7
bayfiles.com/b908M4t1n9
bitster.cz/file/ecedcc
dl.free.fr/ftLpMtqPC
file.bz/j300Mft4nf
www.filefactory.com/file/5mcjr6vtt38p
filerio.in/ckbwfwnm21le
filescdn.net/9h2u2sefg3wx
multiup.org/download/335f9f8f08e5d3d7a2a5c5568358530f
nitroflare.com/view/5965EA6B592E541
openload.co/f/m77Br5XHDkw
rg.to/file/7cba217004bfb19258bddd8cb5bc204e
turbobit.net/hddnbxehwnch.html

 75 total views,  1 views today

Top Rank Boxing 2019 06 01 WEB-DL x264-WH

WH : Source OF Wrestling Releases / Home OF WH Releases

Buy Premium or Renew From WH Links to Keep it Alive

About PH.M.H

[Wrestling Best Uploader]

View all posts by PH.M.H →

One Comment on “Top Rank Boxing 2019 06 01 WEB-DL x264-WH”

Leave a Reply

Your email address will not be published. Required fields are marked *