Stardom The Way To Major League 2020 Korakuen 720p

Stardom The Way To Major League 2020 Korakuen 720p WEBRip x264-WH

Stardom The Way To Major League 2020 Korakuen 720p

Name of the event: Stardom The Way To Major League 2020
Date: 08.02.2020
Promotion: World Wonder Ring Stardom
Type: TV-Show
Location: Tokyo, Japan
Arena: Korakuen Hall
Attendance: 1.519
Broadcast type: Aufzeichnung
Broadcast date: 15.02.2020
TV station/network: Samurai! TV

Singles Match: Leo Onozaki vs. Itsuki Hoshino
Fire Pro Members
Gauntlet Tag Team Match: Jamie Hayter & Zoey Skye vs. Hina & Rina vs. 3838 Tag (Saya Iida & Saya Kamitani) vs. Tokyo Cyber Squad (Death Yama-san & Leyla Hirsch) vs. STARS (Starlight Kid & Tam Nakano)
Artist Of Stardom Title #1 Contendership Match: Oedo Tai (Natsuko Tora, Natsu Sumire & Saki Kashima) vs. Tokyo Cyber Squad (Hana Kimura, Jungle Kyona & Konami)
Artist Of Stardom Title Match: Queen’s Quest (AZM, Momo Watanabe & Utami Hayashishita) (c) vs. Donna del Mondo (Giulia, Maika & Syuri Kondo)
Wonder Of Stardom Title Match: Arisa Hoshiki (c) vs. Bea Priestley
Singles Match: Mayu Iwatani vs. Takumi Iroha

General
Complete name : Stardom.The.Way.To.Major.League.2020.Korakuen.720p.WEBRip.x264-WH.mp4
Format : MPEG-4
Format profile : Base Media
Codec ID : isom
File size : 2.79 GiB
Duration : 2h 31mn
Overall bit rate : 2 629 Kbps
Writing application : Lavf56.15.102

Video
ID : 1
Format : AVC
Codec ID : avc1
Codec ID/Info : Advanced Video Coding
Duration : 2h 31mn
Bit rate mode : Variable
Bit rate : 2 500 Kbps
Width : 1 280 pixels
Height : 720 pixels
Display aspect ratio : 16:9
Frame rate mode : Constant
Frame rate : 25.000 fps
Color space : YUV
Chroma subsampling : 4:2:0
Bit depth : 8 bits
Scan type : Progressive
Bits/(Pixel*Frame) : 0.109
Stream size : 2.65 GiB (95%)
Writing library : x264 core 142
Language : English

Audio
Codec ID : 40
Duration : 2h 31mn
Bit rate mode : Constant
Bit rate : 128 Kbps
Channel(s) : 2 channels
Channel positions : Front: L R
Sampling rate : 44.1 KHz
Compression mode : Lossy
Stream size : 139 MiB (5%)

 104 total views,  1 views today

Stardom The Way To Major League 2020 Korakuen 720p

WH : Source OF Wrestling Releases / Home OF WH Releases

Buy Premium or Renew From WH Links to Keep it Alive

About PH.M.H

[Wrestling Best Uploader]

View all posts by PH.M.H →

3 Comments on “Stardom The Way To Major League 2020 Korakuen 720p”

Leave a Reply

Your email address will not be published. Required fields are marked *