RIZIN 16 WEB x264-WH

RIZIN 16 WEB x264-WH

RIZIN 16 WEB x264-WH

RIZIN 16 WEB x264-WH

Name – RIZIN.16.WEB.x264-WH
Released – 06.03.2019
Aired – 06.02.2019
SOURCE – 720p.Totanon
Size – 5.00 GB
Container – MP4
Resolution – 712 x 400 (16:9) @ 25 FPS
Video – x264 @ 1500 KBPS
Audio – AAC 128 KBPS
Length – 07:25:02
Encoder – WH Crew

General
Complete name : RIZIN.16.WEB.x264-WH.mp4
Format : MPEG-4
Format profile : Base Media
Codec ID : isom (isom/iso2/avc1/mp41)
File size : 5.01 GiB
Duration : 7 h 25 min
Overall bit rate mode : Variable
Overall bit rate : 1 612 kb/s
Writing application : Lavf56.15.102

Video
ID : 1
Format : AVC
Format/Info : Advanced Video Codec
Format profile : [email protected]
Format settings : 2 Ref Frames
Format settings, CABAC : No
Format settings, Reference : 2 frames
Codec ID : avc1
Codec ID/Info : Advanced Video Coding
Duration : 7 h 25 min
Bit rate : 1 500 kb/s
Width : 712 pixels
Height : 400 pixels
Display aspect ratio : 16:9
Frame rate mode : Constant
Frame rate : 25.000 FPS
Color space : YUV
Chroma subsampling : 4:2:0
Bit depth : 8 bits
Scan type : Progressive
Bits/(Pixel*Frame) : 0.211
Stream size : 4.66 GiB (93%)
Writing library : x264 core 142
Codec configuration box : avcC

Audio
ID : 2
Format : AAC LC
Format/Info : Advanced Audio Codec Low Complexity
Codec ID : mp4a-40-2
Duration : 7 h 25 min
Duration_LastFrame : -15 ms
Bit rate mode : Variable
Bit rate : 106 kb/s
Maximum bit rate : 128 kb/s
Channel(s) : 2 channels
Channel layout : L R
Sampling rate : 44.1 kHz
Frame rate : 43.066 FPS (1024 SPF)
Compression mode : Lossy
Stream size : 339 MiB (7%)
Default : Yes
Alternate group : 1

RIZIN 16 WEB x264-WH

1fichier.com/?bjs8os8ixrlyex3d6vwq
anonfile.com/x1B0M7tcn9
bayfiles.com/H4B3Mat7n7
bitster.cz/file/46de96
dl.free.fr/khSy24uQN
file.bz/D7B4M4ten0
filerio.in/tgo87wo1k7gc
filescdn.net/qtsa99vc55gl
multiup.org/download/3d9d8dc24b1131300da25d3169284f0a
nitroflare.com/view/56BB12E46B2A875
openload.co/f/6A_Ct8t5enE
rg.to/file/3b502eeba170ed610d2dcde3170bc891
turbobit.net/n9sh8ftfpg7z.html

 91 total views,  1 views today

RIZIN 16 WEB x264-WH

WH : Source OF Wrestling Releases / Home OF WH Releases

Buy Premium or Renew From WH Links to Keep it Alive

About PH.M.H

[Wrestling Best Uploader]

View all posts by PH.M.H →

Leave a Reply

Your email address will not be published. Required fields are marked *