iMPACT Wrestling 2019 06 14 720p WEB h264-WH

iMPACT Wrestling 2019 06 14 720p WEB h264-WH

iMPACT Wrestling 2019 06 14 720p WEB h264-WH

iMPACT.Wrestling.2019.06.14.720p.WEB.h264-WH

Name – iMPACT.Wrestling.2019.06.14.720p.WEB.h264-WH
Released – 06.14.2019
Aired – 06.14.2019
SOURCE – 1080p-HEEL
Size – 1.67 GB
Container – MP4
Resolution – 1280 x 720 (16:9) @ 25 FPS
Video – x264 @ 2500 kBPS
Audio – AAC 128 KBPS
Length – 01:31:29
Encoder – WH Crew

General
Complete name : iMPACT.Wrestling.2019.06.14.720p.WEB.h264-WH.mp4
Format : MPEG-4
Format profile : Base Media
Codec ID : isom (isom/iso2/avc1/mp41)
File size : 1.68 GiB
Duration : 1 h 31 min
Overall bit rate : 2 630 kb/s
Encoded date : UTC 2019-06-13 16:35:09
Tagged date : UTC 2019-06-13 16:35:09
Writing application : Lavf56.15.102

Video
ID : 1
Format : AVC
Format/Info : Advanced Video Codec
Format profile : [email protected]
Format settings : 2 Ref Frames
Format settings, CABAC : No
Format settings, Reference : 2 frames
Codec ID : avc1
Codec ID/Info : Advanced Video Coding
Duration : 1 h 31 min
Bit rate : 2 500 kb/s
Width : 1 280 pixels
Height : 720 pixels
Display aspect ratio : 16:9
Frame rate mode : Constant
Frame rate : 25.000 FPS
Color space : YUV
Chroma subsampling : 4:2:0
Bit depth : 8 bits
Scan type : Progressive
Bits/(Pixel*Frame) : 0.109
Stream size : 1.60 GiB (95%)
Writing library : x264 core 142
Encoded date : UTC 2019-06-13 16:35:09
Tagged date : UTC 2019-06-13 16:35:09
Codec configuration box : avcC

Audio
ID : 2
Format : AAC LC
Format/Info : Advanced Audio Codec Low Complexity
Codec ID : mp4a-40-2
Duration : 1 h 31 min
Duration_LastFrame : -16 ms
Bit rate mode : Constant
Bit rate : 128 kb/s
Channel(s) : 2 channels
Channel layout : L R
Sampling rate : 44.1 kHz
Frame rate : 43.066 FPS (1024 SPF)
Compression mode : Lossy
Stream size : 83.8 MiB (5%)
Default : Yes
Alternate group : 1
Encoded date : UTC 2019-06-13 16:35:09
Tagged date : UTC 2019-06-13 16:35:09

iMPACT Wrestling 2019 06 14 720p WEB h264-WH

1fichier.com/?xzpddywh2ofnwfo46q2x
anonfile.com/F4e8ubv5nb
bayfiles.com/I0ebu3van9
bitster.cz/file/7697b9
ddl.to/vpc0c4pabysv
dl.free.fr/fur95ebE3
file.bz/C8e3u8v9n5
www.filefactory.com/file/1igdfxv5w87r
filerio.in/9oez0389mb3n
multiup.org/download/6d5a91587c4ab8d425e59e9c9b719d67
nitroflare.com/view/3E556F7A3EBA34D
rg.to/file/3181bd440fab64c16e0e0dc30995e86f
turbobit.net/fsvr4gje2fiu.html
uploadgig.com/file/download/5cD0f2963f40EAb1

 93 total views,  3 views today

iMPACT Wrestling 2019 06 14 720p WEB h264-WH

WH : Source OF Wrestling Releases / Home OF WH Releases

Buy Premium or Renew From WH Links to Keep it Alive

About PH.M.H

[Wrestling Best Uploader]

View all posts by PH.M.H →

Leave a Reply

Your email address will not be published. Required fields are marked *