GrappleFest 5 WEB x264-WH

GrappleFest 5 WEB x264-WH

GrappleFest 5 WEB x264-WH

GrappleFest 5 WEB x264-WH

Name: GrappleFest.5.WEB.x264-WH
Description:

GrappleFest.5.WEB.x264-WH

Name – GrappleFest.5.WEB.x264-WH
Released – 06.12.2019
Aired – 06.01.2019
SOURCE – 720p-ORG
Size – 2.69 GB
Container – MP4
Resolution – 712 x 400 (16:9) @ 25 FPS
Video – x264 @ 1500 kBPS
Audio – AAC 128 KBPS
Length – 03:58:45
Encoder – WH Crew

General
Complete name : GrappleFest.5.WEB.x264-WH.mp4
Format : MPEG-4
Format profile : Base Media
Codec ID : isom (isom/iso2/avc1/mp41)
File size : 2.70 GiB
Duration : 3 h 58 min
Overall bit rate mode : Variable
Overall bit rate : 1 618 kb/s
Writing application : Lavf56.15.102

Video
ID : 1
Format : AVC
Format/Info : Advanced Video Codec
Format profile : [email protected]
Format settings : 2 Ref Frames
Format settings, CABAC : No
Format settings, Reference : 2 frames
Codec ID : avc1
Codec ID/Info : Advanced Video Coding
Duration : 3 h 58 min
Bit rate : 1 500 kb/s
Width : 712 pixels
Height : 400 pixels
Display aspect ratio : 16:9
Frame rate mode : Constant
Frame rate : 29.970 (29970/1000) FPS
Color space : YUV
Chroma subsampling : 4:2:0
Bit depth : 8 bits
Scan type : Progressive
Bits/(Pixel*Frame) : 0.176
Stream size : 2.51 GiB (93%)
Writing library : x264 core 142
Codec configuration box : avcC

Audio
ID : 2
Format : AAC LC
Format/Info : Advanced Audio Codec Low Complexity
Codec ID : mp4a-40-2
Duration : 3 h 58 min
Bit rate mode : Variable
Bit rate : 107 kb/s
Maximum bit rate : 128 kb/s
Channel(s) : 2 channels
Channel layout : L R
Sampling rate : 44.1 kHz
Frame rate : 43.066 FPS (1024 SPF)
Compression mode : Lossy
Stream size : 184 MiB (7%)
Default : Yes
Alternate group : 1

GrappleFest 5 WEB x264-WH

1fichier.com/?qfup0khqh7wq08n92sp2
anonfile.com/D9seY2uen6
bayfiles.com/G3tcY4u3n8
bitster.cz/file/e4989a
dl.free.fr/efG8st5Fp
file.bz/O6sdY9uend
www.filefactory.com/file/1z7hk63qrvgr
filerio.in/k0m3aaqz738h
multiup.org/download/149a4f22914fffed44b966d7a27eb26f
nitroflare.com/view/9DBC9A1C4495E72
rg.to/file/d42b07cac31e7593444327f8f699d0c7
turbobit.net/4r6sd9mzsdno.html

 128 total views,  1 views today

GrappleFest 5 WEB x264-WH

WH : Source OF Wrestling Releases / Home OF WH Releases

Buy Premium or Renew From WH Links to Keep it Alive

About PH.M.H

[Wrestling Best Uploader]

View all posts by PH.M.H →

Leave a Reply

Your email address will not be published. Required fields are marked *