GCW Tournament of Survival 4 2019 WEB x264-WH

GCW Tournament of Survival 4 2019 WEB x264-WH
GCW Tournament of Survival 4 2019 WEB x264-WH
GCW Tournament of Survival 4 2019 WEB x264-WH

Name – GCW.Tournament.of.Survival.4.2019.WEB.x264-WH
Released – 06.01.2019
Aired – 06.01.2019
Size – 2.46 GB
Container – MP4
Resolution – 712 x 400 (16:9) @ 25 FPS
Video – x264 @ 1500 KBPS
Audio – AAC 128 KBPS
Length – 03:35:03
Capper – WH Crew

General
Complete name : GCW.Tournament.of.Survival.4.2019.WEB.x264-WH.mp4
Format : MPEG-4
Format profile : Base Media
Codec ID : isom (isom/iso2/avc1/mp41)
File size : 2.47 GiB
Duration : 3 h 35 min
Overall bit rate : 1 641 kb/s
Writing application : Lavf56.15.102

Video
ID : 1
Format : AVC
Format/Info : Advanced Video Codec
Format profile : [email protected]
Format settings : 2 Ref Frames
Format settings, CABAC : No
Format settings, Reference : 2 frames
Codec ID : avc1
Codec ID/Info : Advanced Video Coding
Duration : 3 h 35 min
Bit rate : 1 500 kb/s
Width : 712 pixels
Height : 400 pixels
Display aspect ratio : 16:9
Frame rate mode : Constant
Frame rate : 25.000 FPS
Color space : YUV
Chroma subsampling : 4:2:0
Bit depth : 8 bits
Scan type : Progressive
Bits/(Pixel*Frame) : 0.211
Stream size : 2.26 GiB (92%)
Writing library : x264 core 142
Codec configuration box : avcC

Audio
ID : 2
Format : AAC LC
Format/Info : Advanced Audio Codec Low Complexity
Codec ID : mp4a-40-2
Duration : 3 h 35 min
Bit rate mode : Constant
Bit rate : 128 kb/s
Channel(s) : 2 channels
Channel layout : L R
Sampling rate : 44.1 kHz
Frame rate : 43.066 FPS (1024 SPF)
Compression mode : Lossy
Stream size : 197 MiB (8%)
Default : Yes
Alternate group : 1

GCW Tournament of Survival 4 2019 WEB x264-WH
GCW Tournament of Survival 4 2019 WEB x264-WH
GCW Tournament of Survival 4 2019 WEB x264-WH
GCW Tournament of Survival 4 2019 WEB x264-WH
GCW Tournament of Survival 4 2019 WEB x264-WH

filetransfer [Recommended by me]

filetransfer.io/data-package/dVWAy5No

1fichier.com/?rq7wmap5z4999dbb3qos
anonfile.com/T1EbH4ten2
bitster.cz/file/274a2d
dl.free.fr/iaxS3XbDF
www.filefactory.com/file/3exvr7o7culr
filerio.in/ils4d05t7mob
filescdn.net/810yqazwde89
multiup.org/download/22488e6ed19ad0a87be8092013df3109
nitroflare.com/view/704BD5EA8580D51
rg.to/file/9d678df57036bed3ac3810d254fdd7ab
turbobit.net/5sc0w6ti9fc0.html

openload.co/f/p7JZyQWtoWU

 153 total views,  1 views today

GCW Tournament of Survival 4 2019 WEB x264-WH

WH : Source OF Wrestling Releases / Home OF WH Releases

Buy Premium or Renew From WH Links to Keep it Alive

About PH.M.H

[Wrestling Best Uploader]

View all posts by PH.M.H →

Leave a Reply

Your email address will not be published. Required fields are marked *