Boxing Joshua Vs Ruiz Jr FULL PPV WEB x264-WH

Boxing Joshua vs Ruiz Jr FULL PPV WEB x264-WH

Boxing Joshua Vs Ruiz Jr FULL PPV WEB x264-WH

Boxing Joshua vs Ruiz Jr FULL PPV WEB x264-WH

Name – Boxing.Joshua.vs.Ruiz.Jr.FULL.PPV.WEB.x264-WH
Released – 06.03.2019
Aired – 06.01.2019
SOURCE – 1080p.MBC
Size – 1.96 GB
Container – MP4
Resolution – 712 x 400 (16:9) @ 29.97 FPS
Video – x264 @ 1500 KBPS
Audio – AAC 128 KBPS
Length – 02:53:02
Encoder – WH Crew

Katie Taylor vs. Delfine Persoon
International Boxing Federation World Female Lightweight Title
World Boxing Association World Female Lightweight Title
World Boxing Council World Female Lightweight Title
World Boxing Organisation World Female Lightweight Title  


Callum Smith vs. Hassan N’Dam N’Jikam
World Boxing Association Super World Super Middleweight Title
World Boxing Council Diamond Super Middleweight Title  


Anthony Joshua vs. Andy Ruiz Jr
International Boxing Federation World Heavyweight Title
International Boxing Organization World Heavyweight Title
World Boxing Association Super World Heavyweight Title
World Boxing Organisation World Heavyweight Title  

General
Complete name : Boxing.Joshua.vs.Ruiz.Jr.FULL.PPV.WEB.x264-WH.mp4
Format : MPEG-4
Format profile : Base Media
Codec ID : isom (isom/iso2/avc1/mp41)
File size : 1.97 GiB
Duration : 2 h 53 min
Overall bit rate : 1 627 kb/s
Writing application : Lavf56.15.102

Video
ID : 1
Format : AVC
Format/Info : Advanced Video Codec
Format profile : [email protected]
Format settings : 2 Ref Frames
Format settings, CABAC : No
Format settings, Reference : 2 frames
Codec ID : avc1
Codec ID/Info : Advanced Video Coding
Duration : 2 h 53 min
Bit rate : 1 500 kb/s
Width : 712 pixels
Height : 400 pixels
Display aspect ratio : 16:9
Frame rate mode : Constant
Frame rate : 29.970 (29970/1000) FPS
Color space : YUV
Chroma subsampling : 4:2:0
Bit depth : 8 bits
Scan type : Progressive
Bits/(Pixel*Frame) : 0.176
Stream size : 1.81 GiB (92%)
Writing library : x264 core 142
Language : English
Codec configuration box : avcC

Audio
ID : 2
Format : AAC LC
Format/Info : Advanced Audio Codec Low Complexity
Codec ID : mp4a-40-2
Duration : 2 h 53 min
Bit rate mode : Constant
Bit rate : 128 kb/s
Channel(s) : 2 channels
Channel layout : L R
Sampling rate : 44.1 kHz
Frame rate : 43.066 FPS (1024 SPF)
Compression mode : Lossy
Stream size : 159 MiB (8%)
Language : English
Default : Yes
Alternate group : 1

Boxing Joshua Vs Ruiz Jr FULL PPV WEB x264-WH

1fichier.com/?9j60q0s8tiq26nk7a4o2
anonfile.com/Rdc0Nft5n8
bayfiles.com/tce4N4t0n2
bitster.cz/file/394f15
dl.free.fr/vw0K9Ulso
file.bz/ube5Nct4n5
www.filefactory.com/file/4nuer77xbz0f
filerio.in/q7xnao0laukh
filescdn.net/bt8ypdzp1q2w
multiup.org/download/1af027eefaa7cc75973b172a28d31974
nitroflare.com/view/2C52051E3F3A6B8
openload.co/f/NkhW1MdrmrY
turbobit.net/50psp9ehsaps.html

 99 total views,  1 views today

Boxing Joshua Vs Ruiz Jr FULL PPV WEB x264-WH

WH : Source OF Wrestling Releases / Home OF WH Releases

Buy Premium or Renew From WH Links to Keep it Alive

About PH.M.H

[Wrestling Best Uploader]

View all posts by PH.M.H →

Leave a Reply

Your email address will not be published. Required fields are marked *