Beyond Wrestling Please Come Back 2020 720p -WH

Spread the love

Beyond Wrestling Please Come Back 2020 720p WEBRIP x264-WH

Beyond Wrestling Please Come Back 2020 720p -WH

General
Complete name : Beyond.Wrestling.Please Come.Back.2020.720p.WEBRIP.x264-WH.mp4
Format : MPEG-4
Codec ID : isom
File size : 3.83 GiB
Duration : 2h 54mn
Overall bit rate : 3 150 Kbps
Writing application : Lavf58.25.100
Copyright : copyright
Comment : description

Video
ID : 1
Duration : 2h 54mn
Bit rate mode : Variable
Bit rate : 3 000 Kbps
Width : 1 280 pixels
Height : 720 pixels
Display aspect ratio : 16:9
Frame rate mode : Variable
Frame rate : 29.970 fps
Minimum frame rate : 29.412 fps
Maximum frame rate : 30.303 fps
Color space : YUV
Chroma subsampling : 4:2:0
Bit depth : 8 bits
Scan type : Progressive
Bits/(Pixel*Frame) : 0.109
Stream size : 3.65 GiB (95%)

Audio
Format profile : LC
Codec ID : 40
Duration : 2h 54mn
Bit rate mode : Constant
Bit rate : 144 Kbps
Channel(s) : 2 channels
Channel positions : Front: L R
Sampling rate : 44.1 KHz
Compression mode : Lossy
Stream size : 177 MiB (5%)

fileup
fileup.cc/xfnnqqzs24m3

k2s
k2s.cc/file/2356e0393914a

nitroflare
nitroflare.com/view/2BE25670FE933AD

rapidgator
rapidgator.net/file/7a07e70be78aa17088027864219de158

uploadgig
uploadgig.com/file/download/Ab1c3704adb81cF8
Beyond Wrestling Please Come Back 2020 720p -WH

About PH.M.H

[Wrestling Best Uploader]

View all posts by PH.M.H →

One Comment on “Beyond Wrestling Please Come Back 2020 720p -WH”

Leave a Reply

Your email address will not be published. Required fields are marked *