WWE Table For 3 S05E03 Restaurant Riott WEB h264-HEEL

WWE Table For 3 S05E03 Restaurant Riott WEB h264-HEEL

WWE Table For 3 S05E03 Restaurant Riott WEB h264-HEEL

WWE Table For 3 S05E03 Restaurant Riott WEB h264-HEEL

General
Complete name : WWE.Table.For.3.S05E03.Restaurant.Riott.WEB.h264-HEEL.mp4
Format : MPEG-4
Format profile : Base Media
Codec ID : isom (isom/iso2/avc1/mp41)
File size : 321 MiB
Duration : 24 min 52 s
Overall bit rate mode : Variable
Overall bit rate : 1 803 kb/s
Writing application : Lavf58.27.103

Video
ID : 1
Format : AVC
Format/Info : Advanced Video Codec
Format profile : [email protected]
Format settings : CABAC / 3 Ref Frames
Format settings, CABAC : Yes
Format settings, Reference : 3 frames
Codec ID : avc1
Codec ID/Info : Advanced Video Coding
Duration : 24 min 52 s
Bit rate mode : Variable
Bit rate : 1 703 kb/s
Maximum bit rate : 2 125 kb/s
Width : 960 pixels
Height : 540 pixels
Display aspect ratio : 16:9
Frame rate mode : Constant
Frame rate : 29.970 (30000/1001) FPS
Color space : YUV
Chroma subsampling : 4:2:0
Bit depth : 8 bits
Scan type : Progressive
Bits/(Pixel*Frame) : 0.110
Stream size : 303 MiB (94%)
Codec configuration box : avcC

Audio
ID : 2
Format : AAC LC
Format/Info : Advanced Audio Codec Low Complexity
Codec ID : mp4a-40-2
Duration : 24 min 52 s
Bit rate mode : Constant
Bit rate : 93.5 kb/s
Channel(s) : 2 channels
Channel layout : L R
Sampling rate : 48.0 kHz
Frame rate : 46.875 FPS (1024 SPF)
Compression mode : Lossy
Stream size : 16.6 MiB (5%)
Default : Yes
Alternate group : 1

Text
ID : 1-CC1
Format : EIA-608
Muxing mode : SCTE 128 / DTVCC Transport
Muxing mode, more info : Muxed in Video #1
Duration : 24 min 52 s
Bit rate mode : Constant
Stream size : 0.00 Byte (0%)
Encoded stream size : 0.00 Byte (0%)
CaptionServiceName : CC1

WWE Table For 3 S05E03 Restaurant Riott WEB h264-HEEL

openload.co/f/8iaBYbsNzr4

1fichier.com/?rbt04l0vd1u1emwx54fj
anonfile.com/yfl4M8u4n2
bayfiles.com/97l0Meu5n2
bitster.cz/file/fa8018
ddl.to/xwu0s6cdqwin
dl.free.fr/r0DeCSkSh
file.bz/6el2M7u6n7
www.filefactory.com/file/5zv4nk9k953r
filerio.in/c19qho8xm91s
multiup.org/download/396c8e68f1fb3e5b2959d0a13ad235dc
nitroflare.com/view/E6BB4834FF44139
rg.to/file/c6b9cf640094fae39e502b6a60926fd2
turbobit.net/oeik82vlegdi.html
uploadgig.com/file/download/3E489231eb1559af

 87 total views,  1 views today

WWE Table For 3 S05E03 Restaurant Riott WEB h264-HEEL

WH : Source OF Wrestling Releases / Home OF WH Releases

Buy Premium or Renew From WH Links to Keep it Alive

About PH.M.H

[Wrestling Best Uploader]

View all posts by PH.M.H →

Leave a Reply

Your email address will not be published. Required fields are marked *