UFC 250 Full PPV 1080i HDTV -WH

UFC 250 Full PPV 1080i HDTV -WH [46 GB]

UFC 250 Full PPV 1080i HDTV -WH

General
Complete name : UFC.250.Full.PPV.1080i.HDTV-WH.ts
Format : MPEG-TS
File size : 46.2 GiB
Duration : 7 h 6 min
Overall bit rate mode : Variable
Overall bit rate : 15.5 Mb/s

Video
Format : AVC
Codec ID : 27
Duration : 6 h 59 min
Bit rate : 13.9 Mb/s
Width : 1 920 pixels
Height : 1 080 pixels
Display aspect ratio : 16:9
Frame rate : 25.000 FPS
Color space : YUV
Chroma subsampling : 4:2:0
Bit depth : 8 bits
Scan type : Interlaced
Scan order : Top Field First
Bits/(Pixel*Frame) : 0.269
Stream size : 40.9 GiB (89%)
Color range : Limited
Color primaries : BT.709
Transfer characteristics : BT.709
Matrix coefficients : BT.709

Audio #1
Format : MPEG Audio
Format version : Version 1
Format profile : Layer 2
Format settings : Dual mono
Codec ID : 3
Duration : 7 h 6 min
Bit rate mode : Constant
Bit rate : 384 kb/s
Channel(s) : 2 channels
Sampling rate : 48.0 kHz
Compression mode : Lossy
Stream size : 1.15 GiB (2%)
Language : English

Audio #2
Format : MPEG Audio
Format version : Version 1
Format profile : Layer 2
Format settings : Dual mono
Codec ID : 3
Duration : 7 h 6 min
Bit rate mode : Constant
Bit rate : 384 kb/s
Channel(s) : 2 channels
Sampling rate : 48.0 kHz
Compression mode : Lossy
Stream size : 1.15 GiB (2%)
Language : English

UFC 250 Full PPV 1080i HDTV -WH
UFC 250 Full PPV 1080i HDTV -WH
UFC 250 Full PPV 1080i HDTV -WH

 320 total views,  1 views today

UFC 250 Full PPV 1080i HDTV -WH

WH : Source OF Wrestling Releases / Home OF WH Releases

Buy Premium or Renew From WH Links to Keep it Alive

About PH.M.H

[Wrestling Best Uploader]

View all posts by PH.M.H →

One Comment on “UFC 250 Full PPV 1080i HDTV -WH”

Leave a Reply

Your email address will not be published. Required fields are marked *