UFC 249 PPV Ferguson Vs Gaethje WEBRIP x264-WH / 720p

UFC 249 PPV Ferguson Vs Gaethje WEBRIP x264-WH / 720p

UFC 249 PPV Ferguson Vs Gaethje WEBRIP x264-WH / 720p

General
Complete name : UFC.249.PPV.Ferguson.Vs.Gaethje.WEBRIP.x264-WH.mp4
Format : MPEG-4
Format profile : Base Media
File size : 2.13 GiB
Duration : 3 h 8 min
Overall bit rate mode : Variable
Overall bit rate : 1 616 kb/s

Video
Format : AVC
Codec ID : avc1
Duration : 3 h 8 min
Bit rate : 1 500 kb/s
Width : 960 pixels
Height : 540 pixels
Display aspect ratio : 16:9
Frame rate mode : Constant
Frame rate : 25.000 FPS
Color space : YUV
Chroma subsampling : 4:2:0
Bit depth : 8 bits
Scan type : Progressive
Bits/(Pixel*Frame) : 0.116
Stream size : 1.97 GiB (92%)

Audio
Format : AAC LC
Codec ID : mp4a-40-2
Duration : 3 h 8 min
Bit rate mode : Variable
Bit rate : 114 kb/s
Maximum bit rate : 160 kb/s
Channel(s) : 2 channels
Channel layout : L R
Sampling rate : 44.1 kHz
Frame rate : 43.066 FPS (1024 SPF)
Compression mode : Lossy
Stream size : 154 MiB (7%)


General
Complete name : UFC.249.PPV.Ferguson.Vs.Gaethje.720p.WEBRIP.x264-WH.mp4
Format : MPEG-4
File size : 4.09 GiB
Duration : 3 h 8 min
Overall bit rate mode : Variable
Overall bit rate : 3 103 kb/s

Video
Format : AVC
Duration : 3 h 8 min
Bit rate : 3 000 kb/s
Width : 1 280 pixels
Height : 720 pixels
Display aspect ratio : 16:9
Frame rate mode : Constant
Frame rate : 50.000 FPS
Color space : YUV
Chroma subsampling : 4:2:0
Bit depth : 8 bits
Scan type : Progressive
Bits/(Pixel*Frame) : 0.065

Audio
Format : AAC LC
Codec ID : mp4a-40-2
Duration : 3 h 8 min
Bit rate mode : Variable
Bit rate : 101 kb/s
Maximum bit rate : 320 kb/s
Channel(s) : 6 channels
Channel layout : C L R Ls Rs LFE
Sampling rate : 44.1 kHz
Frame rate : 43.066 FPS (1024 SPF)


 368 total views,  4 views today

UFC 249 PPV Ferguson Vs Gaethje WEBRIP x264-WH / 720p

Buy Premium or Extend From here to Support WH

About PH.M.H

[Wrestling Best Uploader]

View all posts by PH.M.H

2 Comments on “UFC 249 PPV Ferguson Vs Gaethje WEBRIP x264-WH / 720p”

Leave a Reply

Your email address will not be published. Required fields are marked *