UFC 245 PPV Full Event 1080i HDTV-WH [50 GB]

UFC 245 PPV Full Event 1080i HDTV-WH [50 GB]

UFC 245 PPV Full Event 1080i HDTV-WH [50 GB]

General
Complete name : UFC.245.PPV.Full.Event.1080i.HDTV-WH.ts
Format : MPEG-TS
File size : 49.5 GiB
Duration : 7 h 58 min
Overall bit rate mode : Variable
Overall bit rate : 14.8 Mb/s

Video
ID : 401 (0x191)
Menu ID : 1 (0x1)
Format : AVC
Format/Info : Advanced Video Codec
Format profile : [email protected]
Format settings : CABAC / 2 Ref Frames
Format settings, CABAC : Yes
Format settings, ReFrames : 2 frames
Codec ID : 27
Duration : 7 h 58 min
Bit rate mode : Constant
Bit rate : 13.4 Mb/s
Width : 1 920 pixels
Height : 1 080 pixels
Display aspect ratio : 16:9
Frame rate : 25.000 FPS
Color space : YUV
Chroma subsampling : 4:2:0
Bit depth : 8 bits
Scan type : MBAFF
Scan type, store method : Interleaved fields
Scan order : Top Field First
Bits/(Pixel*Frame) : 0.259
Stream size : 43.6 GiB (88%)
Color range : Limited
Color primaries : BT.709
Transfer characteristics : BT.709
Matrix coefficients : BT.709

Audio #1
ID : 4101 (0x1005)
Menu ID : 1 (0x1)
Format : MPEG Audio
Format version : Version 1
Format profile : Layer 2
Codec ID : 3
Duration : 7 h 58 min
Bit rate mode : Constant
Bit rate : 256 kb/s
Channel(s) : 2 channels
Sampling rate : 48.0 kHz
Frame rate : 41.667 FPS (1152 SPF)
Compression mode : Lossy
Stream size : 875 MiB (2%)

Audio #2
ID : 4201 (0x1069)
Menu ID : 1 (0x1)
Format : MPEG Audio
Format version : Version 1
Format profile : Layer 2
Codec ID : 3
Duration : 7 h 58 min
Bit rate mode : Constant
Bit rate : 256 kb/s
Channel(s) : 2 channels
Sampling rate : 48.0 kHz
Frame rate : 41.667 FPS (1152 SPF)
Compression mode : Lossy
Stream size : 875 MiB (2%)

Audio #3
ID : 4301 (0x10CD)
Menu ID : 1 (0x1)
Format : MPEG Audio
Format version : Version 1
Format profile : Layer 2
Codec ID : 3
Duration : 7 h 58 min
Bit rate mode : Constant
Bit rate : 256 kb/s
Channel(s) : 2 channels
Sampling rate : 48.0 kHz
Frame rate : 41.667 FPS (1152 SPF)
Compression mode : Lossy
Stream size : 875 MiB (2%)

Audio #4
ID : 4401 (0x1131)
Menu ID : 1 (0x1)
Format : MPEG Audio
Format version : Version 1
Format profile : Layer 2
Codec ID : 3
Duration : 7 h 58 min
Bit rate mode : Constant
Bit rate : 256 kb/s
Channel(s) : 2 channels
Sampling rate : 48.0 kHz
Frame rate : 41.667 FPS (1152 SPF)
Compression mode : Lossy
Stream size : 875 MiB (2%)

UFC 245 PPV Full Event 1080i HDTV-WH [50 GB]
UFC 245 PPV Full Event 1080i HDTV-WH [50 GB]
UFC 245 PPV Full Event 1080i HDTV-WH [50 GB]
UFC 245 PPV Full Event 1080i HDTV-WH [50 GB]
UFC 245 PPV Full Event 1080i HDTV-WH [50 GB]
UFC 245 PPV Full Event 1080i HDTV-WH [50 GB]

wrestling-home.vip/2019/12/15/ufc-245-ppv-full-event-1080i-hdtv-wh-50-gb/
UFC 245 PPV Full Event 1080i HDTV-WH [50 GB]

nitroflare
nitroflare.com/view/1175D99E775DD85

rapidgator
rapidgator.net/file/85d67114ca927c9ce237c126c249f11e


fileup
fileup.cc/29ujyhoz1d6t
fileup.cc/71w2fxh72fhh
fileup.cc/6y205m9xot5u
fileup.cc/8w0e695irqji
fileup.cc/drql53aaj2dj

nitroflare
nitroflare.com/view/F2B90D9E39C87B3
nitroflare.com/view/E9287C0218ABCDE
nitroflare.com/view/09D53F6A2420F9A
nitroflare.com/view/BB72B30641355C4
nitroflare.com/view/3B028CD6BD49268

rapidgator
rapidgator.net/file/3803e95e208ee36c3662d9c986c525db
rapidgator.net/file/45b74ff8537f870e71664011ec566e23
rapidgator.net/file/fc109f4921953f937fc2d58da90b7af2
rapidgator.net/file/50a17d1ca987d142144aee5b960cf82d
rapidgator.net/file/c38c77e013eda956994b659874b9ded0

 163 total views,  1 views today

UFC 245 PPV Full Event 1080i HDTV-WH [50 GB]

WH : Source OF Wrestling Releases / Home OF WH Releases

Buy Premium or Renew From WH Links to Keep it Alive

About PH.M.H

[Wrestling Best Uploader]

View all posts by PH.M.H →

One Comment on “UFC 245 PPV Full Event 1080i HDTV-WH [50 GB]”

  1. UFC 245 PPV Full Event Feed 1080i HDTV-WH

    Size: 50 GB

    ONE LINK DOWNLOAD

    ====== RAPIDGATOR ======
    rapidgator.net/file/ec210c2c54999f815e9d01138cfe0545/UFC.245.PPV.Full.Event.Feed.1080i.HDTV-WH.ts

    10GB Parts Download – 5Parts Download – Links are Interchangeable

    ====== UploadGiG ======
    uploadgig.com/file/download/26a394d11176F7Ba/UFC.245.PPV.Full.Event.Feed.1080i.HDTV-WH.part1.rar
    uploadgig.com/file/download/2A22f6Dcf0ac846C/UFC.245.PPV.Full.Event.Feed.1080i.HDTV-WH.part2.rar
    uploadgig.com/file/download/fA26A2ae958a6b59/UFC.245.PPV.Full.Event.Feed.1080i.HDTV-WH.part3.rar
    uploadgig.com/file/download/04062e7C7bE040ed/UFC.245.PPV.Full.Event.Feed.1080i.HDTV-WH.part4.rar
    uploadgig.com/file/download/c348622565236D13/UFC.245.PPV.Full.Event.Feed.1080i.HDTV-WH.part5.rar

    ====== Nitroflare ======
    nitroflare.com/view/3C97EB96C2B6714/UFC.245.PPV.Full.Event.Feed.1080i.HDTV-WH.part1.rar
    nitroflare.com/view/1F9F65D8F7A7DC2/UFC.245.PPV.Full.Event.Feed.1080i.HDTV-WH.part2.rar
    nitroflare.com/view/808B85AD5B709A2/UFC.245.PPV.Full.Event.Feed.1080i.HDTV-WH.part3.rar
    nitroflare.com/view/9441E807524E571/UFC.245.PPV.Full.Event.Feed.1080i.HDTV-WH.part4.rar
    nitroflare.com/view/0C021BC03F86E50/UFC.245.PPV.Full.Event.Feed.1080i.HDTV-WH.part5.rar

    ====== RAPIDGATOR ======
    rapidgator.net/file/e8da0d8ee023c74fefeb42556b8e7ecb/UFC.245.PPV.Full.Event.Feed.1080i.HDTV-WH.part1.rar
    rapidgator.net/file/59c9602ba223e123032934f14b641f5a/UFC.245.PPV.Full.Event.Feed.1080i.HDTV-WH.part2.rar
    rapidgator.net/file/b4dc558495d990284d8bbbcb8b9343d2/UFC.245.PPV.Full.Event.Feed.1080i.HDTV-WH.part3.rar
    rapidgator.net/file/a296f2d12d8691991968efc9d3040fda/UFC.245.PPV.Full.Event.Feed.1080i.HDTV-WH.part4.rar
    rapidgator.net/file/123dc8447eeffa6d874fdfbc9d012af4/UFC.245.PPV.Full.Event.Feed.1080i.HDTV-WH.part5.rar

Leave a Reply

Your email address will not be published. Required fields are marked *