UFC 241 Cormier vs Miocic 2 1080p WEB-WDTeam

Spread the love

UFC 241 Cormier vs Miocic 2 1080p WEB-WDTeam

dOWNLOAD UFC 241 Cormier vs Miocic 2 1080p

UFC 241 Cormier vs Miocic 2 1080p WEB-WDTeam

General
Complete name : UFC.241.Cormier.vs.Miocic.2.1080p.WEB-WDTeam.mp4
Format : MPEG-4
Format profile : Base Media
Codec ID : isom
File size : 6.91 GiB
Duration : 3h 7mn
Overall bit rate : 5 265 Kbps
Encoded date : UTC 2019-08-17 05:13:14
Tagged date : UTC 2019-08-17 05:13:14

Video
ID : 1
Format : AVC
Format/Info : Advanced Video Codec
Format profile : [email protected]
Format settings, CABAC : Yes
Format settings, ReFrames : 4 frames
Format settings, GOP : M=4, N=32
Codec ID : avc1
Codec ID/Info : Advanced Video Coding
Duration : 3h 7mn
Bit rate mode : Variable
Bit rate : 5 067 Kbps
Width : 1 920 pixels
Height : 1 080 pixels
Display aspect ratio : 16:9
Frame rate mode : Constant
Frame rate : 30.000 fps
Color space : YUV
Chroma subsampling : 4:2:0
Bit depth : 8 bits
Scan type : Progressive
Bits/(Pixel*Frame) : 0.081
Stream size : 6.65 GiB (96%)
Tagged date : UTC 2019-08-17 05:14:01

Audio
ID : 2
Format : AAC
Format/Info : Advanced Audio Codec
Format profile : LC
Codec ID : 40
Duration : 3h 7mn
Bit rate mode : Variable
Bit rate : 192 Kbps
Maximum bit rate : 201 Kbps
Channel(s) : 2 channels
Channel positions : Front: L R
Sampling rate : 48.0 KHz
Compression mode : Lossy
Stream size : 259 MiB (4%)
Tagged date : UTC 2019-08-17 05:14:01

UFC 241 Cormier vs Miocic 2 1080p WEB-WDTeam

4downfiles

4downfiles.org/bpesl3j6ofm1

nitroflare

nitroflare.com/view/59D371CF60BE85B

rapidgator
rapidgator.net/file/0d8cb0ee8d99f02f53b556074ef029ea

uploadgig

uploadgig.com/file/download/aBcf20a3451c5Ac0

About PH.M.H

[Wrestling Best Uploader]

View all posts by PH.M.H →

One Comment on “UFC 241 Cormier vs Miocic 2 1080p WEB-WDTeam”

Leave a Reply

Your email address will not be published. Required fields are marked *