UFC on ESPN 7 540p HDTV x264-WH

UFC on ESPN 7 540p HDTV x264-WH

UFC on ESPN 7 540p HDTV x264-WH
General
Complete name                    : UFC.on.ESPN.7.540p.HDTV.x264-WH.mp4
Format                           : MPEG-4
Format profile                   : Base Media
Codec ID                         : isom
File size                        : 2.77 GiB
Duration                         : 3h 58mn
Overall bit rate                 : 1 660 Kbps
Writing application              : Lavf56.15.102

Video
ID                               : 1
Format                           : AVC
Format/Info                      : Advanced Video Codec
Format profile                   : [email protected]
Format settings, CABAC           : No
Format settings, ReFrames        : 2 frames
Codec ID                         : avc1
Codec ID/Info                    : Advanced Video Coding
Duration                         : 3h 58mn
Bit rate mode                    : Variable
Bit rate                         : 1 500 Kbps
Width                            : 960 pixels
Height                           : 540 pixels
Display aspect ratio             : 16:9
Frame rate mode                  : Constant
Frame rate                       : 50.000 fps
Color space                      : YUV
Chroma subsampling               : 4:2:0
Bit depth                        : 8 bits
Scan type                        : Progressive
Bits/(Pixel*Frame)               : 0.058
Stream size                      : 2.50 GiB (90%)
Writing library                  : x264 core 142
Language                         : English


Audio
ID                               : 2
Format                           : AAC
Format/Info                      : Advanced Audio Codec
Format profile                   : LC
Codec ID                         : 40
Duration                         : 3h 58mn
Bit rate mode                    : Variable
Bit rate                         : 152 Kbps
Maximum bit rate                 : 192 Kbps
Channel(s)                       : 2 channels
Channel positions                : Front: L R
Sampling rate                    : 44.1 KHz
Compression mode                 : Lossy
Stream size                      : 259 MiB (9%)
Language                         : English

1fichier.com/?q83eqcgmuxv58ltotskz
dl.free.fr/wlYqhwMsi
dropapk.to/t70m3c8k90fm
earn4files.com/yw8iyl9a6c56
upload.ac/9plqwv56y8zu
uptobox.com/pvwgulg6yn7n

 129 total views,  1 views today

UFC on ESPN 7 540p HDTV x264-WH

WH : Source OF Wrestling Releases / Home OF WH Releases

Buy Premium or Renew From WH Links to Keep it Alive

About PH.M.H

[Wrestling Best Uploader]

View all posts by PH.M.H →

Leave a Reply

Your email address will not be published. Required fields are marked *