UFC on ESPN 5 Covington vs Lawler 1080i HDTV x264-SF63

Spread the love

UFC on ESPN 5 Covington vs Lawler 1080i HDTV x264-SF63

dOWNLOAD UFC on ESPN 5 Covington vs Lawler 1080i HDTV FREE LINKS

UFC on ESPN 5 Covington vs Lawler 1080i HDTV x264-SF63
DescriptionRelease: August 3, 2019 
Source: HDTV – Encoder: @Sajjad Fazli 
Video: MPEG4 (H264) 1920×1080 5145kbps 25fps 
Audio : AAC 48000Hz stereo 192kbps 
File size: 6.14 GiB 
Duration: 2h 50mn 17s

General
Format : MPEG-4
Format profile : Base Media
Codec ID : isom
File size : 6.14 GiB
Duration : 2h 50mn
Overall bit rate : 5 160 Kbps
Writing application : Lavf58.20.100

Video
ID : 1
Format : AVC
Format/Info : Advanced Video Codec
Format profile : [email protected]
Format settings, CABAC : Yes
Format settings, ReFrames : 3 frames
Codec ID : avc1
Codec ID/Info : Advanced Video Coding
Duration : 2h 50mn
Bit rate mode : Constant
Bit rate : 5 145 Kbps
Width : 1 920 pixels
Height : 1 080 pixels
Display aspect ratio : 16:9
Frame rate mode : Variable
Frame rate : 42.992 fps
Original frame rate : 25.000 fps
Minimum frame rate : 0.079 fps
Maximum frame rate : 50.000 fps
Color space : YUV
Chroma subsampling : 4:2:0
Bit depth : 8 bits
Scan type : MBAFF
Bits/(Pixel*Frame) : 0.058
Stream size : 5.89 GiB (96%)
Color primaries : BT.709-5, BT.1361, IEC 61966-2-4, SMPTE RP177
Transfer characteristics : BT.709-5, BT.1361
Matrix coefficients : BT.709-5, BT.1361, IEC 61966-2-4 709, SMPTE RP177

Audio
ID : 2
Format : AAC
Format/Info : Advanced Audio Codec
Format profile : LC
Codec ID : 40
Duration : 2h 50mn
Bit rate mode : Constant
Bit rate : 192 Kbps
Channel(s) : 2 channels
Channel positions : Front: L R
Sampling rate : 48.0 KHz
Compression mode : Lossy
Stream size : 234 MiB (4%)
Language : English

UFC on ESPN 5 Covington vs Lawler 1080i HDTV x264-SF63
UFC on ESPN 5 Covington vs Lawler 1080i HDTV x264-SF63

fileup.cc/u3iwhby1ulfk
www.wdupload.com/file/GVsUR84r1adZ-JEFf-TSPg
uploadgig.com/file/download/2C3283185e1bA644
rapidgator.net/file/0df416fa899c9ed43604ac3de2366de5
nitroflare.com/view/3296414C3DCC17F

About PH.M.H

[Wrestling Best Uploader]

View all posts by PH.M.H →

13 Comments on “UFC on ESPN 5 Covington vs Lawler 1080i HDTV x264-SF63”

  1. Sorry. Where is it, the VIP area?

    I don’t see it on the menu under the site banner on top of the page.

    Thanks for the reply:)

  2. So I will have to be a premium user to get the free links… am I right?

    Thank you for the reply, and the work you put in. I appreciate that:)

    1. Bro it’s a small donation to Wrestling-Home.com is it deserve that ? 5$ per month (15 $ per 3 months) the revenu of this donation will back to all wrestling fans (bringing PPVs and dvds) cover our monthly servers costs to keep wh alive , also any show u need you will ask for re upload (Bro I do this especially for fans)

  3. Definitely! I think this site totally deserves the fund, I really do.

    But me personally, I live in a third-world country with next to minimum income, and I don’t have a credit card.

    I will consider donating one day though in the future.

    Thanks again!

    PS: English is not my first language. I have learned it mostly from TV shows, music, movies & of course MMA!

  4. I’m afraid I couldn’t deliver, because I have a limited access to the WiFi. I get stuff off the Internet with a little help from my friends. Anyway I appreciate that! Take care 🙂

    1. limitation is 100 gb you mean , the time i ask about post wrestling news or marketing of wrestling-home at social media not uploading bro this take small amount of your wifi

  5. Unfortunately I’m not educated in social media at all. I have no idea how it works. I don’t even own a computer or a laptop. Thanks for the offer though. I appreciate that 🙂

Leave a Reply

Your email address will not be published. Required fields are marked *