UFC on ESPN 12 VERUM / 720p / 1080p / Prelims

UFC on ESPN 12 VERUM / 720p / 1080p / Prelims

VERUM Releases
UFC on ESPN 12 VERUM / 720p / 1080p / Prelims

1- UFC.on ESPN 12 Prelims 720p HDTV x264-VERUM
UFC.on.ESPN.12.Prelims.720p.HDTV.x264-VERUM
   
  Rls Date         2020.06.28  Air Date        2020.06.28
  Source           HDTV        Genre           MMA
   
  Audio Codec               Video Res       1280x720
  Audio Channels   2 Channels  Video Runtime   2h 0mn
  Audio Bit Rate   384 Kbps    Video FPS       50fps
  Audio Language   English     Video Bit Rate  2935 Kbps
  Video Crf        23          File  Size      2.78 GiB

Rapidgator // Nitroflare // Uploadgig // More Links

2- UFC on .ESPN 12 Prelims 1080p HDTV x264-VERUM
UFC.on.ESPN.12.Prelims.1080p.HDTV.x264-VERUM
   
  Rls Date         2020.06.28  Air Date        2020.06.28
  Source           HDTV        Genre           MMA
   
  Audio Codec               Video Res       1920x1080
  Audio Channels   2 Channels  Video Runtime   2h 0mn
  Audio Bit Rate   384 Kbps    Video FPS       50fps
  Audio Language   English     Video Bit Rate  6432 Kbps
  Video Crf        22          File  Size      5.71 GiB

Rapidgator // Nitroflare // Uploadgig // More Links

3- UFC on ESPN 12 720p HDTV x264-VERUM
UFC.on.ESPN.12.720p.HDTV.x264-VERUM
   
  Rls Date         2020.06.28  Air Date        2020.06.28
  Source           HDTV        Genre           MMA
   
  Audio Codec               Video Res       1280x720
  Audio Channels   2 Channels  Video Runtime   3h 42mn
  Audio Bit Rate   384 Kbps    Video FPS       50fps
  Audio Language   English     Video Bit Rate  3191 Kbps
  Video Crf        23          File  Size      5.56 GiB

Rapidgator // Nitroflare // Uploadgig // More Links

4- UFC on ESPN 12 1080p HDTV x264-VERUM
UFC.on.ESPN.12.1080p.HDTV.x264-VERUM
   
  Rls Date         2020.06.28  Air Date        2020.06.28
  Source           HDTV        Genre           MMA
   
  Audio Codec               Video Res       1920x1080
  Audio Channels   2 Channels  Video Runtime   3h 42mn
  Audio Bit Rate   384 Kbps    Video FPS       50fps
  Audio Language   English     Video Bit Rate  6928 Kbps
  Video Crf        22          File  Size      11.4 GiB

Rapidgator // Nitroflare // Uploadgig // More Links


References

Info: HOMEPAGETV.comAll About This ShowWH Premium Site


More detailed information / 1080p VERUM / Main Card

General
Complete name : UFC.on.ESPN.12.1080p.HDTV.x264-VERUM.mkv
Format : Matroska
Format version : Version 4
File size : 11.4 GiB
Duration : 3 h 42 min
Overall bit rate : 7 312 kb/s
Writing application : x264.exe
Writing library : MS-DOS 6.22
Tool : Custom Encoder

Video
ID : VERUM
Format : AVC
Codec ID : UFC ESPN
Duration : 3 h 42 min
Bit rate : 6 783 kb/s
Width : 1 920 pixels
Height : 1 080 pixels
Display aspect ratio : 16:9
Frame rate mode : Constant
Frame rate : 50.000 FPS
Color space : YUV
Chroma subsampling : 4:2:0
Bit depth : 8 bits
Scan type : Progressive
Bits/(Pixel*Frame) : 0.065
Stream size : 10.6 GiB (93%)
Language : English
Default : UFC ESPN
Forced : VERUM
Color range : Limited
Matrix coefficients : BT.709
Duration_Source : General_Duration

Audio
ID : UFC ESPN
Codec ID : A_MPEG/L2
Codec ID/Hint : MP2
Duration : 3 h 42 min
Bit rate mode : Constant
Bit rate : 384 kb/s
Channel(s) : 2 channels
Sampling rate : 48.0 kHz
Compression mode : Lossy
Stream size : 612 MiB (5%)
Language : English
Default : VERUM
Forced : UFC ESPN

More detailed information / 720p VERUM / Main Card

General
Complete name : UFC.on.ESPN.12.Prelims.720p.HDTV.x264-VERUM.mkv
Format : Matroska
Format version : Version 4
File size : 2.78 GiB
Duration : 2 h 0 min
Overall bit rate : 3 319 kb/s
Writing application : x264.exe
Writing library : MS-DOS 6.22
Tool : Custom Encoder

Video
ID : Verum
Format : AVC
Duration : 2 h 0 min
Bit rate : 2 869 kb/s
Width : 1 280 pixels
Height : 720 pixels
Display aspect ratio : 16:9
Frame rate mode : Constant
Frame rate : 50.000 FPS
Color space : YUV
Chroma subsampling : 4:2:0
Bit depth : 8 bits
Scan type : Progressive
Bits/(Pixel*Frame) : 0.062
Stream size : 2.41 GiB (86%)
Writing library : x264
Language : English
Default : VERUM
Forced : No
Color range : Limited
Matrix coefficients : BT.709
Duration_Source : VERUM

Audio
ID : 2
Codec ID : A_MPEG/L2
Codec ID/Hint : MP2
Duration : 2 h 0 min
Bit rate mode : Constant
Bit rate : 384 kb/s
Channel(s) : 2 channels
Sampling rate : 48.0 kHz
Compression mode : Lossy
Stream size : 330 MiB (12%)
Language : English
Default : VERUM
Forced : No
Duration_Source : VERUM

 451 total views,  1 views today

UFC on ESPN 12 VERUM / 720p / 1080p / Prelims

WH : Source OF Wrestling Releases / Home OF WH Releases

Buy Premium or Renew From WH Links to Keep it Alive

About PH.M.H

[Wrestling Best Uploader]

View all posts by PH.M.H →

4 Comments on “UFC on ESPN 12 VERUM / 720p / 1080p / Prelims”

Leave a Reply

Your email address will not be published. Required fields are marked *