UFC on ESPN 12 1080i HDTV -WH

UFC on ESPN 12 1080i HDTV -WH [24 GB]

UFC on ESPN 12 1080i HDTV -WH

General
Complete name : UFC.on.ESPN.12.1080i.HDTV-WH.ts
Format : MPEG-TS
File size : 24.1 GiB
Duration : 3 h 42 min
Overall bit rate mode : Variable
Overall bit rate : 15.5 Mb/s

Video
ID : 101 (0x65)
Menu ID : 1 (0x1)
Format : AVC
Codec ID : 27
Duration : 3 h 42 min
Bit rate : 13.9 Mb/s
Width : 1 920 pixels
Height : 1 080 pixels
Display aspect ratio : 16:9
Frame rate : 25.000 FPS
Color space : YUV
Chroma subsampling : 4:2:0
Bit depth : 8 bits
Scan type : Interlaced
Scan type, store method : Separated fields
Scan order : Top Field First
Bits/(Pixel*Frame) : 0.269
Stream size : 21.7 GiB (90%)
Color range : Limited
Color primaries : BT.709
Transfer characteristics : BT.709
Matrix coefficients : BT.709

Audio #1
ID : 102 (0x66)
Menu ID : 1 (0x1)
Format : MPEG Audio
Codec ID : 3
Duration : 3 h 42 min
Bit rate mode : Constant
Bit rate : 384 kb/s
Channel(s) : 2 channels
Sampling rate : 48.0 kHz
Frame rate : 41.667 FPS (1152 SPF)
Compression mode : Lossy
Delay relative to video : 16 ms
Stream size : 612 MiB (2%)
Language : English

Audio #2
ID : 103 (0x67)
Menu ID : 1 (0x1)
Format : MPEG Audio
Codec ID : 3
Duration : 3 h 42 min
Bit rate mode : Constant
Bit rate : 384 kb/s
Channel(s) : 2 channels
Sampling rate : 48.0 kHz
Frame rate : 41.667 FPS (1152 SPF)
Compression mode : Lossy
Delay relative to video : 8 ms
Stream size : 612 MiB (2%)
Language : English

UFC on ESPN 12 1080i HDTV -WH
UFC on ESPN 12 1080i HDTV -WH
UFC on ESPN 12 1080i HDTV -WH
UFC on ESPN 12 1080i HDTV -WH
UFC on ESPN 12 1080i HDTV -WH
UFC on ESPN 12 1080i HDTV -WH
UFC on ESPN 12 1080i HDTV -WH
UFC on ESPN 12 1080i HDTV -WH

this release is exclusive 4 vip Users

 333 total views,  2 views today

UFC on ESPN 12 1080i HDTV -WH

Buy Premium or Extend From here to Support WH

About PH.M.H

[Wrestling Best Uploader]

View all posts by PH.M.H

One Comment on “UFC on ESPN 12 1080i HDTV -WH”

Leave a Reply

Your email address will not be published. Required fields are marked *