UFC on ESPN 11 Blaydes vs Volkov 1080p WEB-WDTeam

UFC on ESPN 11 Blaydes vs Volkov 1080p WEB-WDTeam

UFC on ESPN 11 Blaydes vs Volkov
UFC on ESPN 11 Blaydes vs Volkov 1080p WEB-WDTeam
File inFormation

General
Complete name : UFC.on.ESPN.11.Blaydes.vs.Volkov.1080p.WEB-WDTeam.mp4
Format : MPEG-4
Codec ID : isom (isom)
File size : 7.37 GiB
Duration : 2 h 40 min
Overall bit rate mode : Constant
Overall bit rate : 6 595 kb/s
Encoded date : ESPN
Tagged date : UFC ESPN

Video
ID : EsPN
Format : AVC
Codec ID : avc1
Duration : 2 h 40 min
Source duration : 2 h 40 min
Bit rate mode : Constant
Bit rate : 6 500 kb/s
Width : 1 920 pixels
Height : 1 080 pixels
Display aspect ratio : 16:9
Frame rate mode : Variable
Frame rate : 50.000 FPS
Minimum frame rate : 0.123 FPS
Maximum frame rate : 50.028 FPS
Color space : YUV
Chroma subsampling : 4:2:0
Bit depth : 8 bits
Scan type : Progressive
Bits/(Pixel*Frame) : 0.063
Stream size : 7.26 GiB (98%)
Source stream size : 7.26 GiB (98%)
Tagged date : UTC – ESPN
Codec configuration box : avcC

Audio
ID :UFC ESPN
Format : AAC LC SBR
Commercial name : HE-AAC
Format settings : Implicit
Codec ID : mp4a-40-2
Duration : 2 h 40 min
Bit rate mode : Constant
Bit rate : 96.0 kb/s
Channel(s) : 2 channels
Channel layout : L R
Sampling rate : 48.0 kHz
Frame rate : 23.438 FPS (2048 SPF)
Compression mode : Lossy
Stream size : 108 MiB (1%)
Default : UFC ESPN
Alternate group : UFC ESPN
Tagged date : UFC

More details
Channel : BT Sport HD Source : WEB Language : English
Video : 6.5Mbps | H.264 MP4 | 50fps Audio : 192 Kbps | Mp3 | Stereo
Duration: Main Event Fight Only Size : 7.5GB Quality : HD 1080p
Single download links

Rapidgator // Nitroflare // Uploadgig // More Links

References

Homepage Premium site

 300 total views,  1 views today

UFC on ESPN 11 Blaydes vs Volkov 1080p WEB-WDTeam

WH : Source OF Wrestling Releases / Home OF WH Releases

Buy Premium or Renew From WH Links to Keep it Alive

About PH.M.H

[Wrestling Best Uploader]

View all posts by PH.M.H →

2 Comments on “UFC on ESPN 11 Blaydes vs Volkov 1080p WEB-WDTeam”

Leave a Reply

Your email address will not be published. Required fields are marked *