UFC on ESPN 11 720p HDTV x264-VERUM

UFC on ESPN 11 720p HDTV x264-VERUM

UFC on ESPN 11 720p HDTV
UFC on ESPN 11 720p HDTV x264-VERUM
File inFormation
UFC.on.ESPN.11.720p.HDTV.x264-VERUM
   
  Rls Date         2020.06.21  Air Date        2020.06.21
  Source           HDTV        Genre           MMA
   
  Audio Codec               Video Res       1280x720
  Audio Channels   2 Channels  Video Runtime   3h 13mn
  Audio Bit Rate   384 Kbps    Video FPS       50fps
  Audio Language   English     Video Bit Rate  2781 Kbps
  Video Crf        23          File  Size      4.27 GiB
More detailed InFormation

General
Complete name : 720p.HDTV.x264-VERUM.mkv
Format : Matroska
Format version : Version 4
File size : 4.27 GiB
Duration : 3 h 13 min
Overall bit rate : 3 165 kb/s
Writing application : x264.exe
Writing library : MS-DOS 6.22
Tool : Custom Encoder – HDTV

Video
ID : UFC ESPN 11
Format : AVC
Duration : 3 h 13 min
Bit rate : 2 718 kb/s
Width : 1 280 pixels
Height : 720 pixels
Display aspect ratio : 16:9
Frame rate mode : Constant
Frame rate : 50.000 FPS
Color space : YUV
Chroma subsampling : 4:2:0
Bit depth : 8 bits
Scan type : Progressive
Bits/(Pixel*Frame) : 0.059
Stream size : 3.67 GiB (86%)
Language : English
Default : Yes
Forced : HDTV
Color range : UFC Espn 11
Matrix coefficients : BT.709
Duration_Source : General_Duration

Audio
ID : UFC ESPN 11
Codec ID : A_MPEG/L2
Codec ID/Hint : MP2 – HDTV
Duration : 3 h 13 min
Bit rate mode : Constant
Bit rate : 384 kb/s
Channel(s) : 2 channels
Sampling rate : 48.0 kHz
Compression mode : Lossy
Stream size : 531 MiB (12%)
Language : English
Default : UFC ESPN 11
Forced : UFC ESPN 11

Single download links

Rapidgator // Nitroflare // Uploadgig // More links

References

Homepage

 398 total views,  1 views today

UFC on ESPN 11 720p HDTV x264-VERUM

WH : Source OF Wrestling Releases / Home OF WH Releases

Buy Premium or Renew From WH Links to Keep it Alive

About PH.M.H

[Wrestling Best Uploader]

View all posts by PH.M.H →

5 Comments on “UFC on ESPN 11 720p HDTV x264-VERUM”

  1. UFC on ESPN 11 720p HDTV x264-VERUM

    Single Links
    rapidgator.net/file/45ce38ae5b615f97e81325827d113419/UFC.on.ESPN.11.720p.HDTV.x264-VERUM.mkv
    =
    nitroflare.com/view/A5EC01521C56EE2/UFC.on.ESPN.11.720p.HDTV.x264-VERUM.mkv
    =
    1GB Links
    rapidgator.net/file/d3d1e8620662fa5af815aa72ca084ba8/UFC.on.ESPN.11.720p.HDTV.x264-VERUM.part1.rar
    rapidgator.net/file/166aa7f66cd4f88dff06fddf8d87ce5f/UFC.on.ESPN.11.720p.HDTV.x264-VERUM.part2.rar
    rapidgator.net/file/a6a89075343ef93c71bdbecd93cef7ff/UFC.on.ESPN.11.720p.HDTV.x264-VERUM.part3.rar
    rapidgator.net/file/43e9ce53dbad83889afe996f7eafb880/UFC.on.ESPN.11.720p.HDTV.x264-VERUM.part4.rar
    rapidgator.net/file/e3d43377a08978b439d189ef574270f1/UFC.on.ESPN.11.720p.HDTV.x264-VERUM.part5.rar
    =
    nitroflare.com/view/7A4A28843E9A2F4/UFC.on.ESPN.11.720p.HDTV.x264-VERUM.part1.rar
    nitroflare.com/view/2082E67C83F2971/UFC.on.ESPN.11.720p.HDTV.x264-VERUM.part2.rar
    nitroflare.com/view/1E1DEB66167E417/UFC.on.ESPN.11.720p.HDTV.x264-VERUM.part3.rar
    nitroflare.com/view/E38C6BC50FC181C/UFC.on.ESPN.11.720p.HDTV.x264-VERUM.part4.rar
    nitroflare.com/view/F99C55F16EF9C46/UFC.on.ESPN.11.720p.HDTV.x264-VERUM.part5.rar
    =
    clicknupload.co/u6gqlfp7gd39/UFC.on.ESPN.11.720p.HDTV.x264-VERUM.part1.rar
    clicknupload.co/qitxkkqjbwj3/UFC.on.ESPN.11.720p.HDTV.x264-VERUM.part2.rar
    clicknupload.co/vpulu972nq6w/UFC.on.ESPN.11.720p.HDTV.x264-VERUM.part3.rar
    clicknupload.co/cv3h7g9o2q1j/UFC.on.ESPN.11.720p.HDTV.x264-VERUM.part4.rar
    clicknupload.co/fgadi8ktueqa/UFC.on.ESPN.11.720p.HDTV.x264-VERUM.part5.rar

Leave a Reply

Your email address will not be published. Required fields are marked *