UFC ON ESPN 10 Jessica Eye vs Cynthia Calvillo 1080p -Russian

UFC ON ESPN 10 Jessica Eye vs Cynthia Calvillo 1080p -Russian

UFC ON ESPN 10 Jessica Eye vs Cynthia Calvillo 1080p -Russian

General
Complete name : Jessica Eye vs Cynthia Calvillo.mkv
Format : Matroska
Format version : Version 2
File size : 6.12 GiB
Duration : 2 h 27 min
Overall bit rate : 5 942 kb/s

Video
ID : 1
Format : AVC
Duration : 2 h 27 min
Bit rate : 5 696 kb/s
Width : 1 920 pixels
Height : 1 080 pixels
Display aspect ratio : 16:9
Frame rate mode : Constant
Frame rate : 25.000 FPS
Standard : Component
Color space : YUV
Chroma subsampling : 4:2:0
Bit depth : 8 bits
Scan type : Interlaced
Scan order : Top Field First
Bits/(Pixel*Frame) : 0.110
Stream size : 5.87 GiB (96%)
Default : No
Forced : No

Audio
ID : 2
Format : MPEG Audio
Codec ID/Hint : MP3
Duration : 2 h 27 min
Bit rate mode : Constant
Bit rate : 128 kb/s
Channel(s) : 2 channels
Sampling rate : 48.0 kHz
Compression mode : Lossy
Stream size : 135 MiB (2%)
Default : No
Forced : No

UFC ON ESPN 10 Jessica Eye vs Cynthia Calvillo 1080p -Russian
UFC ON ESPN 10 Jessica Eye vs Cynthia Calvillo 1080p -Russian


 219 total views,  1 views today

UFC ON ESPN 10 Jessica Eye vs Cynthia Calvillo 1080p -Russian

WH : Source OF Wrestling Releases / Home OF WH Releases

Buy Premium or Renew From WH Links to Keep it Alive

About PH.M.H

[Wrestling Best Uploader]

View all posts by PH.M.H →

One Comment on “UFC ON ESPN 10 Jessica Eye vs Cynthia Calvillo 1080p -Russian”

Leave a Reply

Your email address will not be published. Required fields are marked *