UFC on ESPN 10 HDTV x264-ACES / 720p

UFC on ESPN 10 HDTV x264-ACES / 720p

UFC on ESPN 10 HDTV x264-ACES / 720p
download Main Card

General
Complete name : UFC.on.ESPN.10.720p.HDTV.x264-ACES.mkv
Format : Matroska
Format version : Version 4
File size : 4.48 GiB
Duration : 3 h 2 min
Overall bit rate : 3 511 kb/s
Movie name : UFC on ESPN 10

Video
ID : 1
Format : AVC
Duration : 3 h 2 min
Bit rate : 3 057 kb/s
Width : 1 280 pixels
Height : 720 pixels
Display aspect ratio : 16:9
Frame rate mode : Constant
Frame rate : 50.000 FPS
Color space : YUV
Chroma subsampling : 4:2:0
Bit depth : 8 bits
Scan type : Progressive
Bits/(Pixel*Frame) : 0.066
Stream size : 3.90 GiB (87%)
Language : English
Default : Yes
Forced : No
Color range : Limited
Matrix coefficients : BT.709
Duration_Source : General_Duration

Audio
ID : 2
Format : MPEG Audio
Duration : 3 h 2 min
Bit rate mode : Constant
Bit rate : 384 kb/s
Channel(s) : 2 channels
Sampling rate : 48.0 kHz
Compression mode : Lossy
Stream size : 501 MiB (11%)
Language : English
Default : Yes
Forced : No

UFC on ESPN 10 720p HDTV x264-ACES
4.48 GB

NitroFlare | RapidGator | Uploadgig | FileUP | ddl | RockFile

* * * * *

UFC on ESPN 10 HDTV x264-ACES
 1.65 GB

NitroFlare | RapidGator | Uploadgig | FileUP | ddl | RockFile


 270 total views,  1 views today

UFC on ESPN 10 HDTV x264-ACES / 720p

WH : Source OF Wrestling Releases / Home OF WH Releases

Buy Premium or Renew From WH Links to Keep it Alive

About PH.M.H

[Wrestling Best Uploader]

View all posts by PH.M.H →