UFC on ESPN 10 Eye Vs Calvillo Main Fight 1080i HDTV -WH

UFC on ESPN 10 Eye Vs Calvillo Main Fight 1080i HDTV -WH [5.1 GB]

UFC on ESPN 10 Eye Vs Calvillo Main Fight 1080i HDTV -WH

General
Complete name : UFC.on.ESPN.10.Eye.Vs.Calvillo.Main.Fight.1080i.HDTV-WH.ts
Format : MPEG-TS
File size : 5.16 GiB
Duration : 47 min 7 s
Overall bit rate mode : Variable
Overall bit rate : 15.7 Mb/s

Video
Format : AVC
Codec ID : 27
Duration : 47 min 7 s
Bit rate : 14.1 Mb/s
Width : 1 920 pixels
Height : 1 080 pixels
Display aspect ratio : 16:9
Frame rate : 25.000 FPS
Color space : YUV
Chroma subsampling : 4:2:0
Bit depth : 8 bits
Scan type : Interlaced
Scan order : Top Field First
Bits/(Pixel*Frame) : 0.273
Stream size : 4.65 GiB (90%)

Audio #1
Format : MPEG Audio
Duration : 47 min 7 s
Bit rate mode : Constant
Bit rate : 384 kb/s
Channel(s) : 2 channels
Sampling rate : 48.0 kHz
Frame rate : 41.667 FPS (1152 SPF)
Compression mode : Lossy
Stream size : 129 MiB (2%)
Language : English

Audio #2
Format : MPEG Audio
Duration : 47 min 7 s
Bit rate mode : Constant
Bit rate : 384 kb/s
Channel(s) : 2 channels
Sampling rate : 48.0 kHz
Frame rate : 41.667 FPS (1152 SPF)
Compression mode : Lossy
Stream size : 129 MiB (2%)
Language : English

UFC on ESPN 10 Eye Vs Calvillo Main Fight 1080i HDTV -WH
UFC on ESPN 10 Eye Vs Calvillo Main Fight 1080i HDTV -WH
UFC on ESPN 10 Eye Vs Calvillo Main Fight 1080i HDTV -WH
UFC on ESPN 10 Eye Vs Calvillo Main Fight 1080i HDTV -WH

Rapidgator // NitroFlare // UploadGiG

 235 total views,  1 views today

UFC on ESPN 10 Eye Vs Calvillo Main Fight 1080i HDTV -WH

WH : Source OF Wrestling Releases / Home OF WH Releases

Buy Premium or Renew From WH Links to Keep it Alive

About PH.M.H

[Wrestling Best Uploader]

View all posts by PH.M.H →

Leave a Reply

Your email address will not be published. Required fields are marked *