UFC on ESPN 10 1080p HDTV x264-ACES

UFC on ESPN 10 1080p HDTV x264-ACES

UFC on ESPN 10 1080p HDTV x264-ACES

UFC on ESPN 10 1080p HDTV x264-ACES

File information

General
Complete name : UFC.on.ESPN.10.1080p.HDTV.x264-ACES.mkv
Format : Matroska
Format version : Version 4
File size : 8.45 GiB
Duration : 3 h 2 min
Overall bit rate : 6 615 kb/s
Movie name : UFC on ESPN 10
Writing application : ESPN 10
file name : UFC on ESPN

Video
ID : UFC ESPN 10
Format : AVC
Format/Info : Advanced Video Codec
AFormat profile : [email protected]
BFormat settings : CABAC / 5 Ref Frames
CFormat settings, CABAC : Yes
DFormat settings, Reference : 5 frames
Codec ID : UFC on ESPN
Duration : 3 h 2 min
Bit rate : 6 099 kb/s
Width : 1 920 pixels
Height : 1 080 pixels
Display aspect ratio : 16:9
Frame rate mode : Constant
Frame rate : 50.000 FPS
Color space : YUV
Chroma subsampling : 4:2:0
Bit depth : 8 bits
Scan type : Progressive
Bits/(Pixel*Frame) : 0.059
Stream size : 7.79 GiB (92%)
Language : English
Default : UFC on ESPN
Forced : UFC ESPN 10

Audio
ID : UFC ESPN 10
Codec ID : A_MPEG/L2
Codec ID/Hint : MP2
Duration : 3 h 2 min
Bit rate mode : Constant
Bit rate : 384 kb/s
Channel(s) : 2 channels
Sampling rate : 48.0 kHz
Compression mode : Lossy
Stream size : 502 MiB (6%)
Language : English
Default : Yes
Forced : UFC on ESPN 10

Single download links

RapidGator | NitroFlare | UploadGiG | Fileup

references

Info: HOMEPAGETV.comWH

 277 total views,  1 views today

UFC on ESPN 10 1080p HDTV x264-ACES

WH : Source OF Wrestling Releases / Home OF WH Releases

Buy Premium or Renew From WH Links to Keep it Alive

About PH.M.H

[Wrestling Best Uploader]

View all posts by PH.M.H →

Leave a Reply

Your email address will not be published. Required fields are marked *