UFC Fight Night 176 Full Event 1080i HDTV -WH

UFC Fight Night 176 Full Event 1080i HDTV -WH [27.6 GB]

UFC Fight Night 176 Full Event 1080i HDTV -WH

General
Complete name : UFC.Fight.Night.176.Full.Event.1080i.HDTV-WH.ts
Format : MPEG-TS
File size : 27.6 GiB
Duration : 4 h 24 min
Overall bit rate mode : Variable
Overall bit rate : 14.9 Mb/s

Video
Format : AVC
Duration : 4 h 24 min
Bit rate : 13.4 Mb/s
Width : 1 920 pixels
Height : 1 080 pixels
Display aspect ratio : 16:9
Frame rate : 25.000 FPS
Color space : YUV
Chroma subsampling : 4:2:0
Bit depth : 8 bits
Scan type : Interlaced
UFC Fight Night 176
Stream size : 24.8 GiB (90%)

Audio #1
Format : MPEG Audio
UFC Fight Night 176
Duration : 4 h 24 min
Bit rate mode : Constant
Bit rate : 384 kb/s
Channel(s) : 2 channels
Sampling rate : 48.0 kHz
Compression mode : Lossy
Stream size : 727 MiB (3%)
Language : English

Audio #2
Format : MPEG Audio
UFC Fight Night 176
Duration : 4 h 24 min
Bit rate mode : Constant
Bit rate : 384 kb/s
Channel(s) : 2 channels
Sampling rate : 48.0 kHz
Compression mode : Lossy
Language : English

UFC Fight Night 176 Full Event 1080i HDTV -WH
UFC Fight Night 176 Full Event 1080i HDTV -WH
UFC Fight Night 176 Full Event 1080i HDTV -WH
UFC Fight Night 176 Full Event 1080i HDTV -WH
UFC Fight Night 176 Full Event 1080i HDTV -WH

UFC Fight Night 176 Full Event 1080i HDTV -WH

Wrestling homePremium Site

 71 total views,  1 views today

UFC Fight Night 176 Full Event 1080i HDTV -WH

WH : Source OF Wrestling Releases / Home OF WH Releases

Buy Premium or Renew From WH Links to Keep it Alive

About PH.M.H

[Wrestling Best Uploader]

View all posts by PH.M.H →

Leave a Reply

Your email address will not be published. Required fields are marked *