UFC Fight Night 154 720p60fps ESPN

UFC Fight Night 154 Moicano vs The Korean Zombie 720p60fps ESPN WEB-DL AAC H.264

Download UFC Fight Night 154 720p60fps ESPN free hosts

UFC Fight Night 154 720p60fps ESPN

UFC Fight Night 154 Moicano vs The Korean Zombie 720p60fps ESPN WEB-DL AAC H.264

General
Complete name                            : UFC.Fight.Night.154.Moicano.vs.The.Korean.Zombie.720p.60fps.ESPN.WEB-DL.AAC2.0.H.264.mp4
Format                                  : MPEG-4
Format profile                          : Base Media
Codec ID                                : isom (isom/iso2/avc1/mp41)
File size                                : 7.11 GiB
Duration                                : 2 h 42 min
Overall bit rate mode                    : Constant
Overall bit rate                        : 6 266 kb/s
Writing application                      : Lavf58.20.100

Video
ID                                      : 1
Format                                  : AVC
Format/Info                              : Advanced Video Codec
Format profile                          : [email protected]
Format settings                          : CABAC / 4 Ref Frames
Format settings, CABAC                  : Yes
Format settings, ReFrames                : 4 frames
Codec ID                                : avc1
Codec ID/Info                            : Advanced Video Coding
Duration                                : 2 h 42 min
Bit rate mode                            : Constant
Bit rate                                : 6 137 kb/s
Nominal bit rate                        : 6 872 kb/s
Width                                    : 1 280 pixels
Height                                  : 720 pixels
Display aspect ratio                    : 16:9
Frame rate mode                          : Variable
Frame rate                              : 53.517 FPS
Minimum frame rate                      : 0.006 FPS
Maximum frame rate                      : 59.960 FPS
Original frame rate                      : 59.940 (60000/1001) FPS
Color space                              : YUV
Chroma subsampling                      : 4:2:0
Bit depth                                : 8 bits
Scan type                                : Progressive
Bits/(Pixel*Frame)                      : 0.124
Stream size                              : 6.97 GiB (98%)
Codec configuration box                  : avcC

Audio
ID                                      : 2
Format                                  : AAC LC
Format/Info                              : Advanced Audio Codec Low Complexity
Codec ID                                : mp4a-40-2
Duration                                : 2 h 42 min
Bit rate mode                            : Constant
Bit rate                                : 112 kb/s
Channel(s)                              : 2 channels
Channel layout                          : L R
Sampling rate                            : 48.0 kHz
Frame rate                              : 46.875 FPS (1024 SPF)
Compression mode                        : Lossy
Stream size                              : 130 MiB (2%)
Default                                  : Yes
Alternate group                          : 1

Text #1
ID                                      : 1-CC1
Format                                  : EIA-608
Muxing mode                              : SCTE 128 / DTVCC Transport
Muxing mode, more info                  : Muxed in Video #1
Duration                                : 2 h 42 min
Bit rate mode                            : Constant
Stream size                              : 0.00 Byte (0%)
Encoded stream size                      : 0.00 Byte (0%)
CaptionServiceName                      : CC1

Text #2
ID                                      : 1-1
Format                                  : EIA-708
Muxing mode                              : SCTE 128 / DTVCC Transport
Muxing mode, more info                  : Muxed in Video #1
Duration                                : 2 h 42 min
Bit rate mode                            : Constant
Stream size                              : 0.00 Byte (0%)
Encoded stream size                      : 0.00 Byte (0%)

Size7.11 GB
UFC Fight Night 154 720p60fps ESPN
UFC Fight Night 154 720p60fps ESPN
UFC Fight Night 154 720p60fps ESPN

1fichier.com/?h8ez98ny3q0k4h2j89li
dl.free.fr/iCmeGASRA
file.bz/W5x6q5wen8
multiup.org/download/cc33f788d07eac77d778f8d38776a1bd
turbobit.net/odvk9o8krt1s.html
uptobox.com/youtplo5yw4s

1fichier.com/?xuxjb20qdk3r7vtdehm9
1fichier.com/?ldkagsuwr8rb83z766y1
1fichier.com/?mze9i5hvc9ggvitjjegg
1fichier.com/?lafqr3ab9p1dzaqwpqzn
bayfiles.com/W8u3q9w9na
bayfiles.com/Kew5q8wdn2
bayfiles.com/qex7q3w1n1
bayfiles.com/4cwfqbw7nd
dl.free.fr/rkijDc8bv
dl.free.fr/fIGwf0cRc
dl.free.fr/iWgmjcVek
dl.free.fr/kNlvDhm0J
file.bz/i5u5qaw1n4
file.bz/5dwbqaw9n2
file.bz/X7w7q7w2n2
file.bz/zbx0q1wfnc
www.filefactory.com/file/6h8gsjxvl05r
www.filefactory.com/file/1mv3xy0vg9xd
www.filefactory.com/file/473wqs526x0z
www.filefactory.com/file/65h32ak4sma9
multiup.org/download/1b324e508ba7810273405c8d42f0cf7a
multiup.org/download/19b2012e23a94f2b4d0e09ac1e8ef9e7
multiup.org/download/451ddca2730fce5b6a03c3d994f3e6fd
multiup.org/download/312eb7bda5ba8599c8cb77ee9a88e3a2
turbobit.net/ynxtlyz43y5x.html
turbobit.net/mk293u52vqzu.html
turbobit.net/90n29nq8qxvs.html
turbobit.net/45p0q7xuk8nl.html
uptobox.com/rqgszls0sue3
uptobox.com/249hny0w8hws
uptobox.com/760r7v0rsd6i
uptobox.com/brh77vhk7sd5

 93 total views,  1 views today

UFC Fight Night 154 720p60fps ESPN

WH : Source OF Wrestling Releases / Home OF WH Releases

Buy Premium or Renew From WH Links to Keep it Alive

About PH.M.H

[Wrestling Best Uploader]

View all posts by PH.M.H →

One Comment on “UFC Fight Night 154 720p60fps ESPN”

Leave a Reply

Your email address will not be published. Required fields are marked *