UFC Fight Night 153 Prelims WEB-DL H264 FB

UFC Fight Night 153 Prelims WEB-DL H264 FB

UFC Fight Night 153 Prelims WEB-DL H264 FB

UFC Fight Night 153 Prelims WEB-DL H264 FB

[EVENT]: UFC.Fight.Night.153.Prelims.WEB-DL.H264.FB.mp4
[SIZE]: 1.89 GB
[SOURCE]: Fight Pass
[CONTAINER]: mp4
[RESOLUTION]: 960 x 540 @ 29.970 FPS
[VIDEO]: H264 @ 1600 Kbps
[AUDIO]: AAC @ 92 kbps
[Length]: 02:59:57
[Language]: English

General
Complete name : UFC.Fight.Night.153.Prelims.WEB-DL.H264.FB.mp4
Format : MPEG-4
Format profile : Base Media
Codec ID : isom (isom/iso2/avc1/mp41)
File size : 1.90 GiB
Duration : 2 h 59 min
Overall bit rate : 1 509 kb/s
Writing application : Lavf58.12.100

Video
ID : 1
Format : AVC
Format/Info : Advanced Video Codec
Format profile : [email protected]
Format settings : CABAC / 3 Ref Frames
Format settings, CABAC : Yes
Format settings, Reference : 3 frames
Codec ID : avc1
Codec ID/Info : Advanced Video Coding
Duration : 2 h 59 min
Bit rate : 1 422 kb/s
Width : 960 pixels
Height : 540 pixels
Display aspect ratio : 16:9
Frame rate mode : Constant
Frame rate : 29.970 (30000/1001) FPS
Original frame rate : 29.970 (29970/1000) FPS
Color space : YUV
Chroma subsampling : 4:2:0
Bit depth : 8 bits
Scan type : Progressive
Bits/(Pixel*Frame) : 0.092
Stream size : 1.79 GiB (94%)
Codec configuration box : avcC

Audio
ID : 2
Format : AAC LC
Format/Info : Advanced Audio Codec Low Complexity
Codec ID : mp4a-40-2
Duration : 2 h 59 min
Bit rate mode : Constant
Bit rate : 78.1 kb/s
Channel(s) : 2 channels
Channel layout : L R
Sampling rate : 44.1 kHz
Frame rate : 43.066 FPS (1024 SPF)
Compression mode : Lossy
Stream size : 100 MiB (5%)
Default : Yes
Alternate group : 1

UFC Fight Night 153 Prelims WEB-DL H264 FB

filetransfer [Recommended by me]

filetransfer.io/data-package/0Kf6lTJQ

1fichier.com/?19ixpar7n1izmaag7lq2
bitster.cz/file/490ee9
ddl.to/iwf1wng758xs
dl.free.fr/gPex2Sm5F
www.filefactory.com/file/250blt54uasv
filerio.in/cbtpskp5iv2q
filescdn.net/o5ikil5xj5sw
multiup.org/download/acdfef6a8fd58f8c67e3b91ad4718869
nitroflare.com/view/88F1DEB6C6F4DBE
openload.co/f/JzqA2trMUdQ
rg.to/file/d9aa26630a8486a6aa6acd2748e76dc8
turbobit.net/7affbp2cazab.html

anonfile.com/w3r5Eftfn8
bayfiles.com/qdsdE8tcn2
file.bz/Efr7E6tdnd

 79 total views,  1 views today

UFC Fight Night 153 Prelims WEB-DL H264 FB

WH : Source OF Wrestling Releases / Home OF WH Releases

Buy Premium or Renew From WH Links to Keep it Alive

About PH.M.H

[Wrestling Best Uploader]

View all posts by PH.M.H →

Leave a Reply

Your email address will not be published. Required fields are marked *