UFC Fight Night 153 Prelims 720p WEB-DL H264 FB

UFC Fight Night 153 Prelims 720p WEB-DL H264 FB

UFC Fight Night 153 Prelims 720p WEB-DL H264 FB

UFC Fight Night 153 Prelims 720p WEB-DL H264 FB

[EVENT]: UFC.Fight.Night.153.Prelims.720p.WEB-DL.H264.FB.mp4
[SIZE]: 5.49 GB
[SOURCE]: Fight Pass
[CONTAINER]: mp4
[RESOLUTION]: 1280 x 720 @ 29.970 FPS
[VIDEO]: H264 @ 4500 Kbps
[AUDIO]: AAC @ 128 kbps
[Length]: 02:59:57
[Language]: English

General
Complete name : UFC.Fight.Night.153.Prelims.720p.WEB-DL.H264.FB.mp4
Format : MPEG-4
Format profile : Base Media
Codec ID : isom (isom/iso2/avc1/mp41)
File size : 5.50 GiB
Duration : 2 h 59 min
Overall bit rate : 4 374 kb/s
Writing application : Lavf58.12.100

Video
ID : 1
Format : AVC
Format/Info : Advanced Video Codec
Format profile : [email protected]
Format settings : CABAC / 3 Ref Frames
Format settings, CABAC : Yes
Format settings, Reference : 3 frames
Codec ID : avc1
Codec ID/Info : Advanced Video Coding
Duration : 2 h 59 min
Bit rate : 4 238 kb/s
Width : 1 280 pixels
Height : 720 pixels
Display aspect ratio : 16:9
Frame rate mode : Constant
Frame rate : 29.970 (30000/1001) FPS
Original frame rate : 29.970 (29970/1000) FPS
Color space : YUV
Chroma subsampling : 4:2:0
Bit depth : 8 bits
Scan type : Progressive
Bits/(Pixel*Frame) : 0.153
Stream size : 5.33 GiB (97%)
Codec configuration box : avcC

Audio
ID : 2
Format : AAC LC
Format/Info : Advanced Audio Codec Low Complexity
Codec ID : mp4a-40-2
Duration : 2 h 59 min
Bit rate mode : Constant
Bit rate : 125 kb/s
Channel(s) : 2 channels
Channel layout : L R
Sampling rate : 44.1 kHz
Frame rate : 43.066 FPS (1024 SPF)
Compression mode : Lossy
Stream size : 161 MiB (3%)
Default : Yes
Alternate group : 1

UFC Fight Night 153 Prelims 720p WEB-DL H264 FB

filetransfer [Recommended by me]

filetransfer.io/data-package/4VkZ6Obf

1fichier.com/?0wk3ao6l8jdnxu2ht9kt
bitster.cz/file/b53dfe
dl.free.fr/m7vvO0clX
filerio.in/a0901a9fxbvf
multiup.org/download/1612c315faed8da7d20ca78505ce7fdf
turbobit.net/r4qhnu10i8bl.html

anonfile.com/LcvcEft6n8
bayfiles.com/K6v5E6tan3
filescdn.net/jzteoyeii7fa
rg.to/file/2c356f458a496643b5323263e5993269

file.bz/1dwcEetanb
openload.co/f/YdJKPIhMeaE

 90 total views,  1 views today

UFC Fight Night 153 Prelims 720p WEB-DL H264 FB

WH : Source OF Wrestling Releases / Home OF WH Releases

Buy Premium or Renew From WH Links to Keep it Alive

About PH.M.H

[Wrestling Best Uploader]

View all posts by PH.M.H →

Leave a Reply

Your email address will not be published. Required fields are marked *