UFC Fight Night 153 Main Event Gustafsson vs Smith 720p60fps ESPN WEB-DL

UFC Fight Night 153 Main Event Gustafsson vs Smith 720p60fps ESPN WEB-DL

UFC Fight Night 153 Main Event Gustafsson vs Smith 720p60fps ESPN WEB-DL

UFC Fight Night 153 Main Event Gustafsson vs Smith 720p60fps ESPN WEB-DL

PH.M.H NOTE : This just the main event NOT all fights / MAIN EVENT FIGHT NOT FULL SHOW

General
Complete name                            : UFC.Fight.Night.153.Main.Event.Gustafsson.vs.Smith.720p.60fps.ESPN.WEB-DL.AAC2.0.H.264.mp4
Format                                  : MPEG-4
Format profile                          : Base Media
Codec ID                                : isom (isom/iso2/avc1/mp41)
File size                                : 2.15 GiB
Duration                                : 43 min 57 s
Overall bit rate mode                    : Constant
Overall bit rate                        : 7 016 kb/s
Writing application                      : Lavf58.20.100

Video
ID                                      : 1
Format                                  : AVC
Format/Info                              : Advanced Video Codec
Format profile                          : [email protected]
Format settings                          : CABAC / 4 Ref Frames
Format settings, CABAC                  : Yes
Format settings, ReFrames                : 4 frames
Codec ID                                : avc1
Codec ID/Info                            : Advanced Video Coding
Duration                                : 43 min 57 s
Bit rate mode                            : Constant
Bit rate                                : 6 872 kb/s
Width                                    : 1 280 pixels
Height                                  : 720 pixels
Display aspect ratio                    : 16:9
Frame rate mode                          : Variable
Frame rate                              : 59.940 (60000/1001) FPS
Minimum frame rate                      : 59.920 FPS
Maximum frame rate                      : 59.960 FPS
Color space                              : YUV
Chroma subsampling                      : 4:2:0
Bit depth                                : 8 bits
Scan type                                : Progressive
Bits/(Pixel*Frame)                      : 0.124
Stream size                              : 2.11 GiB (98%)
Codec configuration box                  : avcC

Audio
ID                                      : 2
Format                                  : AAC LC
Format/Info                              : Advanced Audio Codec Low Complexity
Codec ID                                : mp4a-40-2
Duration                                : 43 min 57 s
Bit rate mode                            : Constant
Bit rate                                : 125 kb/s
Channel(s)                              : 2 channels
Channel layout                          : L R
Sampling rate                            : 48.0 kHz
Frame rate                              : 46.875 FPS (1024 SPF)
Compression mode                        : Lossy
Stream size                              : 39.4 MiB (2%)
Default                                  : Yes
Alternate group                          : 1

UFC Fight Night 153 Main Event Gustafsson vs Smith 720p60fps ESPN WEB-DL
UFC Fight Night 153 Main Event Gustafsson vs Smith 720p60fps ESPN WEB-DL
UFC Fight Night 153 Main Event Gustafsson vs Smith 720p60fps ESPN WEB-DL

1fichier.com/?ytwmnlt1eppxswpfb7yz
bitster.cz/file/c88842
dl.free.fr/ildFpsrQ1
www.filefactory.com/file/1kc7i1ojesj3
filerio.in/uzz6apvyi0fm
filescdn.net/6w2i5az6nnv8
multiup.org/download/2dcfb32bfd635d26ab755c9d3c130fd0
nitroflare.com/view/7BBE2146186CE74
rg.to/file/607b8f4bbed532edf8bb1353187b611d
turbobit.net/sx3konyzccr6.html

 102 total views,  2 views today

UFC Fight Night 153 Main Event Gustafsson vs Smith 720p60fps ESPN WEB-DL

WH : Source OF Wrestling Releases / Home OF WH Releases

Buy Premium or Renew From WH Links to Keep it Alive

About PH.M.H

[Wrestling Best Uploader]

View all posts by PH.M.H →

One Comment on “UFC Fight Night 153 Main Event Gustafsson vs Smith 720p60fps ESPN WEB-DL”

Leave a Reply

Your email address will not be published. Required fields are marked *